<?xml version="1.0" standalone="no"?>
<!DOCTYPE svg PUBLIC "-//W3C//DTD SVG 1.1//EN" "http://www.w3.org/Graphics/SVG/1.1/DTD/svg11.dtd" >
<svg xmlns="http://www.w3.org/2000/svg">
<metadata>
<json>
<![CDATA[
{
	"fontFamily": "amelia-icons",
	"majorVersion": 1,
	"minorVersion": 0,
	"version": "Version 1.0",
	"fontId": "amelia-icons",
	"psName": "amelia-icons",
	"subFamily": "Regular",
	"fullName": "amelia-icons",
	"description": "Font generated by IcoMoon."
}
]]>
</json>
</metadata>
<defs>
<font id="amelia-icons" horiz-adv-x="1024">
<font-face units-per-em="1024" ascent="960" descent="-64" />
<missing-glyph horiz-adv-x="1024" />
<glyph unicode="&#x20;" horiz-adv-x="512" d="" />
<glyph unicode="&#xe900;" glyph-name="outlook" data-tags="outlook" d="M639.393 721.557v-200.3l69.999-44.073c1.849-0.542 5.846-0.58 7.694 0l301.255 203.106c0 24.038-22.421 41.268-35.073 41.268h-343.875zM639.434 446.544l63.882-43.88c9.001-6.618 19.845 0 19.845 0-10.808-6.618 295.258 196.684 295.258 196.684v-368.138c0-40.077-25.653-56.882-54.499-56.882h-324.527v272.217h0.041zM308.663 538.894c-21.769 0-39.113-10.23-51.921-30.654-12.807-20.42-19.23-47.458-19.23-81.11 0-34.153 6.422-61.154 19.23-81 12.808-19.882 29.615-29.766 50.383-29.766 21.422 0 38.422 9.654 50.96 28.96s18.845 46.111 18.845 80.379c0 35.731-6.077 63.537-18.269 83.423-12.192 19.843-28.845 29.767-49.998 29.767zM5.581 823.286v-783.625l596.131-124.994v1024l-596.131-115.38zM404.488 299c-25.191-33.155-58.036-49.772-98.573-49.772-39.498 0-71.651 16.078-96.535 48.194-24.845 32.152-37.307 73.995-37.307 125.611 0 54.495 12.615 98.572 37.883 132.225s58.729 50.498 100.381 50.498c39.345 0 71.19-16.076 95.458-48.306 24.305-32.23 36.459-74.688 36.459-127.417 0.037-54.191-12.574-97.882-37.768-131.034z" />
<glyph unicode="&#xe901;" glyph-name="google" data-tags="google" d="M1013.753 415.029c0 36.305-3.26 71.214-9.31 104.726h-482.203v-198.049h275.546c-11.87-63.999-47.944-118.223-102.169-154.528v-128.463h165.468c96.814 89.134 152.668 220.392 152.668 376.315zM522.197-85.333c138.238 0 254.137 45.849 338.845 124.043l-165.464 128.463c-45.849-30.72-104.494-48.869-173.383-48.869-133.35 0-246.221 90.064-286.482 211.078h-171.053v-132.653c84.246-167.328 257.392-282.061 457.535-282.061zM235.757 329.377c-10.24 30.72-16.058 63.534-16.058 97.279s5.818 66.559 16.058 97.278v132.653h-171.053c-34.676-69.119-54.457-147.316-54.457-229.931 0-82.619 19.782-160.813 54.457-229.932l171.053 132.653zM522.197 735.033c75.169 0 142.663-25.833 195.722-76.566l146.848 146.849c-88.669 82.617-204.562 133.351-342.57 133.351-200.141 0-373.288-114.733-457.535-282.061l171.053-132.653c40.261 121.016 153.133 211.081 286.482 211.081z" />
<glyph unicode="&#xe902;" glyph-name="apple" data-tags="apple" d="M799.42-44.097c-55.543-53.903-116.825-45.501-175.238-20.085-62.101 25.927-118.875 27.567-184.461 0-81.677-35.253-125.026-25.005-174.215 20.085-277.716 285.911-236.725 721.445 78.908 737.84 76.552-4.099 130.15-42.323 175.24-45.5 67.021 13.629 131.172 52.673 202.907 47.549 86.184-6.968 150.643-40.991 193.684-102.17-177.288-106.579-135.271-340.229 27.567-405.815-32.588-85.569-74.399-170.11-144.495-232.622l0.102 0.718zM513.505 696.818c-8.3 127.073 94.69 231.601 213.155 241.849 16.294-146.544-133.222-256.196-213.155-241.849z" />
<glyph unicode="&#xe903;" glyph-name="yahoo" data-tags="yahoo" horiz-adv-x="3494" d="M0.226 689.376h207.847l121.027-327.251 122.598 327.251h202.371l-304.725-774.709h-203.656l83.415 205.286-228.874 569.423zM864.99 702.434c-156.164 0-254.889-148.024-254.889-295.433 0-165.881 108.236-297.392 251.925-297.392 107.188 0 147.599 69.023 147.599 69.023v-53.765h181.282v564.536h-181.282v-51.321c0 0-45.085 64.352-144.635 64.352zM903.547 521.014c72.058 0 109.242-60.26 109.242-114.633 0-58.55-39.834-116.007-109.242-116.007-57.518 0-109.501 49.679-109.501 113.515 0 64.738 41.815 117.125 109.501 117.125zM1253.154 124.856v813.811h189.607v-302.555c0 0 45.037 66.237 139.364 66.237 115.374 0 182.975-90.857 182.975-220.688v-356.805h-188.221v307.927c0 43.938-19.805 86.383-64.662 86.383-45.657 0-69.456-43.088-69.456-86.383v-307.927h-189.607zM2088.355 702.376c-178.837 0-285.326-143.726-285.326-297.715 0-175.244 128.932-295.045 286.006-295.045 152.237 0 285.452 114.368 285.452 292.105 0 194.478-139.479 300.654-286.133 300.654zM2090.066 519.361c63.168 0 106.881-55.609 106.881-114.91 0-50.579-40.731-112.962-106.881-112.962-60.614 0-106.103 51.388-106.103 113.516 0 59.849 37.816 114.357 106.103 114.357zM2690.586 702.376c-178.843 0-285.332-143.726-285.332-297.715 0-175.244 128.938-295.045 286.006-295.045 152.243 0 285.452 114.368 285.452 292.105 0 194.478-139.479 300.654-286.127 300.654zM2692.291 519.361c63.174 0 106.881-55.609 106.881-114.91 0-50.579-40.725-112.962-106.881-112.962-60.614 0-106.103 51.388-106.103 113.516 0 59.849 37.822 114.357 106.103 114.357zM3126.215 112.881c69.541 0 125.909 59.578 125.909 133.076 0 73.492-56.367 133.069-125.909 133.069-69.535 0-125.909-59.577-125.909-133.069 0-73.498 56.373-133.076 125.909-133.076zM3293.444 427.895h-226.662l201.172 510.772h225.819l-200.329-510.772z" />
<glyph unicode="&#xe904;" glyph-name="arrow-down" data-tags="arrow-down" d="M271.343 573.839c19.425 18.039 49.796 16.916 67.834-2.514l172.825-186.122 172.825 186.122c18.039 19.425 48.409 20.552 67.834 2.514s20.552-48.409 2.514-67.834l-207.999-224c-9.083-9.782-21.826-15.338-35.175-15.338s-26.091 5.555-35.174 15.338l-207.999 224c-18.039 19.425-16.916 49.796 2.514 67.834z" />
<glyph unicode="&#xe905;" glyph-name="arrow-up" data-tags="arrow-up" d="M752.654 279.496c-19.425-18.037-49.797-16.913-67.835 2.512l-172.822 186.119-172.824-186.119c-18.037-19.425-48.408-20.552-67.833-2.512s-20.552 48.408-2.512 67.833l207.999 223.999c9.082 9.782 21.827 15.337 35.175 15.337s26.092-5.557 35.173-15.337l207.999-223.999c18.037-19.425 16.913-49.797-2.512-67.833z" />
<glyph unicode="&#xe906;" glyph-name="arrow-left" data-tags="arrow-left" d="M659.175 667.329c18.037-19.428 16.915-49.796-2.513-67.835l-186.12-172.826 186.12-172.826c19.428-18.037 20.55-48.411 2.513-67.835s-48.411-20.55-67.835-2.513l-224 208c-9.78 9.084-15.34 21.828-15.34 35.173s5.556 26.092 15.34 35.172l224 208c19.428 18.037 49.796 16.915 67.835-2.513z" />
<glyph unicode="&#xe907;" glyph-name="arrow-right" data-tags="arrow-right" d="M364.825 186.005c-18.037 19.428-16.915 49.796 2.513 67.835l186.12 172.826-186.12 172.826c-19.428 18.037-20.55 48.411-2.513 67.835s48.411 20.55 67.835 2.513l224-208c9.78-9.084 15.34-21.828 15.34-35.173s-5.556-26.092-15.34-35.172l-224-208c-19.428-18.037-49.796-16.915-67.835 2.513z" />
<glyph unicode="&#xe908;" glyph-name="close" data-tags="close" d="M224.269 714.398c14.582 14.582 38.215 14.582 52.799 0l234.932-234.932 234.932 234.932c14.582 14.582 38.215 14.582 52.793 0s14.582-38.215 0-52.799l-234.93-234.932 234.93-234.932c14.582-14.582 14.582-38.215 0-52.793s-38.215-14.582-52.793 0l-234.932 234.93-234.932-234.93c-14.582-14.582-38.215-14.582-52.799 0s-14.582 38.215 0 52.793l234.932 234.932-234.932 234.932c-14.582 14.582-14.582 38.215 0 52.799z" />
<glyph unicode="&#xe909;" glyph-name="plus" data-tags="plus" d="M512 725.331c17.675 0 31.997-14.329 31.997-31.997v-234.666h234.669c17.671 0 31.996-14.329 31.996-31.997s-14.329-31.997-31.996-31.997h-234.669v-234.669c0-17.671-14.329-31.996-31.997-31.996s-31.997 14.329-31.997 31.996v234.669h-234.666c-17.675 0-31.997 14.329-31.997 31.997s14.329 31.997 31.997 31.997h234.666v234.666c0 17.675 14.329 31.997 31.997 31.997z" />
<glyph unicode="&#xe90a;" glyph-name="user" data-tags="user" d="M512.001 669.336c-51.545 0-93.332-41.784-93.332-93.33s41.787-93.33 93.332-93.33c51.545 0 93.33 41.784 93.33 93.33s-41.785 93.33-93.33 93.33zM362.67 576c0 82.475 66.856 149.33 149.332 149.33 82.472 0 149.33-66.856 149.33-149.33 0-82.472-66.858-149.33-149.33-149.33-82.475 0-149.332 66.858-149.332 149.33zM356.423 287.933c-34.265-20.449-54.95-46.729-67.584-70.65-4.46-8.449-3.055-15.113 1.474-20.797 5.271-6.617 15.758-12.482 29.33-12.482h384.721c13.567 0 24.059 5.864 29.328 12.482 4.526 5.681 5.936 12.345 1.471 20.797-12.631 23.919-33.314 50.197-67.582 70.65-34.287 20.465-83.796 36.071-155.577 36.071s-121.294-15.603-155.579-36.071zM327.718 336.016c44.387 26.495 104.194 43.985 184.283 43.985s139.894-17.493 184.28-43.985c44.408-26.509 71.745-61.049 88.399-92.583 15.449-29.253 10.391-59.761-7.183-81.836-16.831-21.133-44.078-33.594-73.136-33.594h-384.721c-29.061 0-56.305 12.463-73.137 33.594-17.577 22.071-22.631 52.584-7.185 81.836 16.653 31.534 43.992 66.074 88.4 92.583z" />
<glyph unicode="&#xe90b;" glyph-name="users" data-tags="users" d="M420.098 669.336c-41.237 0-74.669-33.428-74.669-74.669s33.428-74.669 74.669-74.669c41.237 0 74.669 33.428 74.669 74.669s-33.428 74.669-74.669 74.669zM289.433 594.667c0 72.163 58.5 130.669 130.669 130.669s130.669-58.499 130.669-130.669c0-72.163-58.499-130.669-130.669-130.669s-130.669 58.499-130.669 130.669zM588.098 697.336c0 15.463 12.537 28 27.999 28 75.58 0 121.332-62.152 121.332-130.669s-45.758-130.669-121.332-130.669c-15.463 0-27.999 12.537-27.999 28s12.537 28 27.999 28c37.827 0 65.331 29.785 65.331 74.669s-27.504 74.669-65.331 74.669c-15.463 0-27.999 12.537-27.999 28zM313.99 276.797c-22.226-27.363-33.355-61.831-38.724-88.236-0.161-0.792-0.077-1.217-0.017-1.427 0.074-0.259 0.244-0.637 0.644-1.085 0.833-0.925 2.625-2.051 5.392-2.051h277.635c2.765 0 4.557 1.126 5.391 2.051 0.399 0.448 0.568 0.825 0.644 1.085 0.062 0.209 0.147 0.631-0.016 1.427-5.369 26.405-16.498 60.872-38.724 88.236-21.304 26.229-53.683 47.202-106.113 47.202s-84.806-20.973-106.113-47.202zM270.519 312.1c31.23 38.451 79.192 67.899 149.581 67.899s118.35-29.449 149.582-67.899c30.304-37.311 43.911-81.775 50.135-112.386 8.28-40.697-24.976-71.715-60.897-71.715h-277.635c-35.922 0-69.17 31.017-60.896 71.715 6.223 30.611 19.831 75.076 50.134 112.386zM625.436 351.999c0 15.463 12.537 28 28 28 50.295 0 85.336-26.663 108.277-59.171 22.365-31.675 34.531-70.342 41.28-100.744 11.459-51.626-30.864-92.086-77.624-92.086h-34.602c-15.463 0-28 12.537-28 28s12.537 28 28 28h34.602c8.147 0 14.791 3.395 18.823 7.925 3.823 4.291 5.529 9.723 4.129 16.023-6.077 27.39-16.219 57.715-32.361 80.584-15.56 22.037-35.217 35.469-62.531 35.469-15.463 0-28 12.537-28 28z" />
<glyph unicode="&#xe90c;" glyph-name="edit" data-tags="edit" d="M630.512 706.187c25.527 25.529 66.913 25.529 92.44 0l68.569-68.569c25.527-25.529 25.527-66.913 0-92.44l-371.622-371.621c-3.685-3.687-8.323-6.266-13.391-7.457l-158.745-37.352c-9.443-2.224-19.367 0.595-26.227 7.457-6.86 6.857-9.681 16.779-7.459 26.229l37.352 158.744c1.195 5.071 3.774 9.709 7.459 13.391l371.622 371.621zM683.335 666.57c-3.647 3.647-9.56 3.647-13.207 0.001v-0.001l-48.617-48.615 81.776-81.778 48.617 48.616c3.647 3.647 3.647 9.557 0 13.209l-68.569 68.568zM663.669 496.562l-81.775 81.777-277.75-277.753-25.165-106.939 106.939 25.165 277.748 277.751z" />
<glyph unicode="&#xe90d;" glyph-name="check" data-tags="check" d="M796.908 653.080c17.835-17.152 18.39-45.508 1.239-63.338l-373.32-388.245c-8.624-8.965-20.59-13.949-33.033-13.747s-24.237 5.573-32.562 14.822l-134.399 149.331c-16.549 18.39-15.058 46.718 3.332 63.262s46.718 15.058 63.266-3.332l102.178-113.534 339.946 353.538c17.152 17.835 45.508 18.39 63.338 1.243z" />
<glyph unicode="&#xe90e;" glyph-name="coupon" data-tags="coupon" horiz-adv-x="1365" d="M961.257 213.333h-557.513c-21.993 0-39.823 19.103-39.823 42.665v42.665c65.978 0 119.469 57.309 119.469 127.999s-53.487 127.999-119.469 127.999v42.665c0 23.566 17.829 42.665 39.823 42.665h557.513c21.99 0 39.823-19.103 39.823-42.665v-341.333c0-23.566-17.829-42.665-39.823-42.665zM284.278 256.001c0-70.693 53.487-127.999 119.469-127.999h557.513c65.979 0 119.469 57.309 119.469 127.999v341.333c0 70.693-53.487 127.999-119.469 127.999h-557.513c-65.978 0-119.469-57.309-119.469-127.999v-127.999h79.643c21.993 0 39.823-19.103 39.823-42.665s-17.829-42.665-39.823-42.665h-79.643v-127.999zM806.944 327.109c0 27.489 22.284 49.777 49.777 49.777s49.777-22.285 49.777-49.777c0-27.489-22.284-49.777-49.777-49.777s-49.777 22.285-49.777 49.777zM607.831 526.223c0 27.489 22.285 49.777 49.777 49.777s49.777-22.285 49.777-49.777c0-27.489-22.285-49.777-49.777-49.777s-49.777 22.285-49.777 49.777zM613.333 285.447c-10.814 10.814-10.814 28.343 0 39.151l241.408 241.408c10.814 10.814 28.343 10.814 39.153 0s10.814-28.343 0-39.151l-241.408-241.408c-10.814-10.814-28.343-10.814-39.151 0z" />
<glyph unicode="&#xe90f;" glyph-name="drag" data-tags="drag" d="M476.443 604.444c0-29.455-23.876-53.333-53.333-53.333-29.455 0-53.333 23.878-53.333 53.333s23.878 53.333 53.333 53.333c29.457 0 53.333-23.878 53.333-53.333zM476.443 426.665c0-29.453-23.876-53.333-53.333-53.333-29.455 0-53.333 23.881-53.333 53.333 0 29.457 23.878 53.333 53.333 53.333 29.457 0 53.333-23.876 53.333-53.333zM476.443 248.89c0-29.457-23.876-53.333-53.333-53.333-29.455 0-53.333 23.876-53.333 53.333 0 29.453 23.878 53.333 53.333 53.333 29.457 0 53.333-23.881 53.333-53.333zM654.223 604.444c0-29.455-23.881-53.333-53.333-53.333-29.457 0-53.333 23.878-53.333 53.333s23.876 53.333 53.333 53.333c29.453 0 53.333-23.878 53.333-53.333zM654.223 426.665c0-29.453-23.881-53.333-53.333-53.333-29.457 0-53.333 23.881-53.333 53.333 0 29.457 23.876 53.333 53.333 53.333 29.453 0 53.333-23.876 53.333-53.333zM654.223 248.89c0-29.457-23.881-53.333-53.333-53.333-29.457 0-53.333 23.876-53.333 53.333 0 29.453 23.876 53.333 53.333 53.333 29.453 0 53.333-23.881 53.333-53.333z" />
<glyph unicode="&#xe910;" glyph-name="coupon-limit" data-tags="coupon-limit" d="M377.983 625.171h-178.066c-11.575 0-20.958-9.383-20.958-20.958v-106.239c0-11.576 9.383-20.958 20.958-20.958 27.76 0 50.347-22.586 50.347-50.348s-22.586-50.347-50.347-50.347c-11.575 0-20.958-9.383-20.958-20.958v-106.241c0-11.576 9.383-20.958 20.958-20.958h178.066v397.008zM824.082 477.016c11.575 0 20.958 9.383 20.958 20.958v106.239c0 11.576-9.383 20.958-20.958 20.958h-404.182v-397.008h404.182c11.575 0 20.958 9.383 20.958 20.958v106.241c0 11.576-9.383 20.958-20.958 20.958-27.76 0-50.347 22.584-50.347 50.347s22.586 50.348 50.347 50.348z" />
<glyph unicode="&#xe911;" glyph-name="save" data-tags="save" d="M316 669.334c-25.773 0-46.667-20.894-46.667-46.667v-392c0-25.775 20.894-46.667 46.667-46.667h46.667v102.667c0 36.083 29.251 65.333 65.333 65.333h168c36.083 0 65.333-29.251 65.333-65.333v-102.667h46.667c25.775 0 46.667 20.892 46.667 46.667v277.072c0 12.377-4.917 24.247-13.668 32.999l-114.927 114.928c-8.755 8.752-20.623 13.669-32.999 13.669h-174.406v-102.667c0-15.463-12.537-28-28-28s-28 12.537-28 28v102.667h-46.667zM605.333 184v102.667c0 5.156-4.178 9.333-9.333 9.333h-168c-5.155 0-9.333-4.178-9.333-9.333v-102.667h186.667zM213.333 622.667c0 56.701 45.966 102.667 102.667 102.667h277.073c27.227 0 53.342-10.816 72.595-30.070l114.927-114.928c19.257-19.254 30.072-45.367 30.072-72.597v-277.072c0-56.702-45.965-102.667-102.667-102.667h-392c-56.701 0-102.667 45.965-102.667 102.667v392z" />
<glyph unicode="&#xe912;" glyph-name="menu" data-tags="menu" d="M170.667 693.334c0 17.673 14.327 32 32 32h618.667c17.673 0 32-14.327 32-32s-14.327-32-32-32h-618.667c-17.673 0-32 14.327-32 32zM170.667 426.667c0 17.673 14.327 32 32 32h618.667c17.673 0 32-14.327 32-32s-14.327-32-32-32h-618.667c-17.673 0-32 14.327-32 32zM170.667 160c0 17.673 14.327 32 32 32h618.667c17.673 0 32-14.327 32-32s-14.327-32-32-32h-618.667c-17.673 0-32 14.327-32 32z" />
<glyph unicode="&#xe913;" glyph-name="refresh" data-tags="refresh" d="M503.787 757.409c11.823-13.136 10.756-33.37-2.381-45.192l-44.681-40.215h108.608c159.057 0 288-128.942 288-288v-10.667c0-17.673-14.327-32-32-32s-32 14.327-32 32v10.667c0 123.712-100.288 224-224 224h-108.608l44.681-40.215c13.137-11.823 14.204-32.056 2.381-45.192s-32.055-14.203-45.193-2.379l-106.668 96c-6.743 6.068-10.593 14.714-10.593 23.785s3.85 17.717 10.593 23.785l106.668 96c13.137 11.823 33.37 10.758 45.193-2.379zM202.667 512.002c17.673 0 32-14.327 32-32v-10.667c0-123.712 100.288-224 224-224h108.608l-44.681 40.213c-13.137 11.823-14.204 32.055-2.381 45.193s32.055 14.204 45.193 2.381l106.667-96c6.746-6.071 10.594-14.716 10.594-23.787s-3.849-17.715-10.594-23.787l-106.667-96c-13.137-11.823-33.37-10.756-45.193 2.381s-10.756 33.37 2.381 45.193l44.681 40.213h-108.608c-159.058 0-288 128.943-288 288v10.667c0 17.673 14.327 32 32 32z" />
<glyph unicode="&#xe914;" glyph-name="circle-info" data-tags="circle-info" d="M512 426.667c23.563 0 42.664-19.101 42.664-42.664v-85.336c0-23.563-19.101-42.664-42.664-42.664s-42.664 19.101-42.664 42.664v85.336c0 23.563 19.102 42.664 42.664 42.664zM469.336 554.667c0 23.562 19.102 42.664 42.664 42.664s42.664-19.102 42.664-42.664c0-23.562-19.101-42.664-42.664-42.664s-42.664 19.102-42.664 42.664zM512 704.003c-153.166 0-277.336-124.169-277.336-277.336 0-153.17 124.169-277.336 277.336-277.336 153.17 0 277.336 124.166 277.336 277.336 0 153.166-124.166 277.336-277.336 277.336zM170.664 426.667c0 188.514 152.822 341.336 341.336 341.336s341.336-152.822 341.336-341.336c0-188.515-152.821-341.336-341.336-341.336s-341.336 152.821-341.336 341.336z" />
<glyph unicode="&#xe915;" glyph-name="calendar" data-tags="calendar" d="M362.661 725.34c15.463 0 28-12.537 28-28v-46.67h242.67v46.67c0 15.463 12.537 28 28 28s28-12.537 28-28v-46.67h18.669c56.703 0 102.671-45.969 102.671-102.671v-317.335c0-56.703-45.968-102.671-102.671-102.671h-392c-56.702 0-102.671 45.968-102.671 102.671v317.335c0 56.702 45.969 102.671 102.671 102.671h18.669v46.67c0 15.463 12.537 28 28 28zM334.66 594.669h-18.669c-25.773 0-46.67-20.895-46.67-46.67v-317.335c0-25.776 20.895-46.67 46.67-46.67h392c25.776 0 46.67 20.895 46.67 46.67v317.335c0 25.773-20.895 46.67-46.67 46.67h-18.669v-28c0-15.463-12.537-28-28-28s-28 12.537-28 28v28h-242.67v-28c0-15.463-12.537-28-28-28s-28 12.537-28 28v28zM325.324 473.339c0 15.463 12.537 28 28 28h317.335c15.463 0 28-12.537 28-28s-12.537-28-28-28h-317.335c-15.463 0-28 12.537-28 28z" />
<glyph unicode="&#xe916;" glyph-name="info-reverse" data-tags="info-reverse" d="M512-0c84.386 0 166.878 25.024 237.043 71.906s124.851 113.519 157.146 191.484c32.294 77.961 40.742 163.75 24.277 246.515-16.461 82.765-57.097 158.79-116.766 218.46-59.674 59.671-135.697 100.307-218.462 116.77s-168.555 8.014-246.517-24.28c-77.963-32.293-144.599-86.98-191.482-157.145s-71.906-152.657-71.906-237.043c0-56.030 11.036-111.514 32.478-163.277 21.442-51.767 52.87-98.803 92.49-138.423s86.655-71.049 138.42-92.489c51.766-21.444 107.249-32.478 163.279-32.478zM469.333 597.333c0 11.316 4.497 22.168 12.497 30.17s18.854 12.497 30.17 12.497c11.315 0 22.17-4.495 30.17-12.497s12.497-18.854 12.497-30.17v-213.333c0-11.315-4.497-22.17-12.497-30.17-8-8.004-18.854-12.497-30.17-12.497s-22.17 4.493-30.17 12.497c-8 8-12.497 18.854-12.497 30.17v213.333zM512 298.667c8.439 0 16.687-2.505 23.706-7.189 7.014-4.689 12.484-11.354 15.714-19.149 3.23-7.799 4.075-16.375 2.428-24.653s-5.709-15.881-11.678-21.845c-5.969-5.969-13.568-10.031-21.845-11.678s-16.858-0.802-24.653 2.428c-7.795 3.23-14.46 8.7-19.149 15.714-4.689 7.019-7.189 15.266-7.189 23.706 0 11.315 4.497 22.17 12.497 30.17s18.854 12.497 30.17 12.497z" />
<glyph unicode="&#xe917;" glyph-name="order" data-tags="order" d="M320 810.667c10.010 0 19.569-4.168 26.381-11.504l155.998-168c13.53-14.569 12.689-37.348-1.882-50.877s-37.35-12.686-50.876 1.884l-93.621 100.821v-412.323c0-19.883-16.118-36.002-36-36.002s-36 16.119-36 36.002v412.323l-93.619-100.821c-13.529-14.57-36.307-15.413-50.877-1.884s-15.413 36.307-1.884 50.877l156 168c6.812 7.336 16.37 11.504 26.38 11.504zM704 618.667c19.883 0 35.998-16.118 35.998-36v-412.324l93.623 100.821c13.525 14.571 36.305 15.411 50.876 1.882 14.571-13.525 15.411-36.305 1.882-50.876l-155.998-168c-6.814-7.334-16.371-11.503-26.381-11.503s-19.567 4.169-26.381 11.503l-155.998 168c-13.53 14.571-12.689 37.35 1.882 50.876 14.571 13.53 37.35 12.689 50.876-1.882l93.619-100.821v412.324c0 19.882 16.119 36 36.002 36z" />
<glyph unicode="&#xe918;" glyph-name="options" data-tags="options" d="M426.667 661.334c-35.346 0-64-28.654-64-64s28.654-64 64-64c35.345 0 64 28.654 64 64s-28.655 64-64 64zM302.699 629.334c14.21 55.207 64.325 96 123.968 96s109.76-40.793 123.968-96h270.699c17.673 0 32-14.327 32-32s-14.327-32-32-32h-270.699c-14.208-55.206-64.324-96-123.968-96s-109.758 40.794-123.968 96h-100.032c-17.673 0-32 14.327-32 32s14.327 32 32 32h100.032zM640 320c-35.345 0-64-28.655-64-64s28.655-64 64-64c35.345 0 64 28.655 64 64s-28.655 64-64 64zM516.032 288c14.208 55.206 64.324 96 123.968 96s109.76-40.794 123.968-96h57.365c17.673 0 32-14.327 32-32s-14.327-32-32-32h-57.365c-14.208-55.206-64.324-96-123.968-96s-109.76 40.794-123.968 96h-313.365c-17.673 0-32 14.327-32 32s14.327 32 32 32h313.365z" />
<glyph unicode="&#xe919;" glyph-name="layout" data-tags="layout" d="M213.333 660c0 36.083 29.251 65.333 65.333 65.333h130.667c36.083 0 65.333-29.251 65.333-65.333v-130.667c0-36.083-29.251-65.333-65.333-65.333h-130.667c-36.083 0-65.333 29.251-65.333 65.333v130.667zM278.667 669.334c-5.155 0-9.333-4.179-9.333-9.333v-130.667c0-5.155 4.179-9.333 9.333-9.333h130.667c5.155 0 9.333 4.179 9.333 9.333v130.667c0 5.155-4.179 9.333-9.333 9.333h-130.667zM549.333 660c0 36.083 29.251 65.333 65.333 65.333h130.667c36.083 0 65.333-29.251 65.333-65.333v-130.667c0-36.083-29.251-65.333-65.333-65.333h-130.667c-36.083 0-65.333 29.251-65.333 65.333v130.667zM614.667 669.334c-5.156 0-9.333-4.179-9.333-9.333v-130.667c0-5.155 4.178-9.333 9.333-9.333h130.667c5.156 0 9.333 4.179 9.333 9.333v130.667c0 5.155-4.178 9.333-9.333 9.333h-130.667zM213.333 324c0 36.083 29.251 65.333 65.333 65.333h130.667c36.083 0 65.333-29.251 65.333-65.333v-130.667c0-36.083-29.251-65.333-65.333-65.333h-130.667c-36.083 0-65.333 29.251-65.333 65.333v130.667zM278.667 333.334c-5.155 0-9.333-4.178-9.333-9.333v-130.667c0-5.156 4.179-9.333 9.333-9.333h130.667c5.155 0 9.333 4.178 9.333 9.333v130.667c0 5.156-4.179 9.333-9.333 9.333h-130.667zM549.333 324c0 36.083 29.251 65.333 65.333 65.333h130.667c36.083 0 65.333-29.251 65.333-65.333v-130.667c0-36.083-29.251-65.333-65.333-65.333h-130.667c-36.083 0-65.333 29.251-65.333 65.333v130.667zM614.667 333.334c-5.156 0-9.333-4.178-9.333-9.333v-130.667c0-5.156 4.178-9.333 9.333-9.333h130.667c5.156 0 9.333 4.178 9.333 9.333v130.667c0 5.156-4.178 9.333-9.333 9.333h-130.667z" />
<glyph unicode="&#xe91a;" glyph-name="design" data-tags="design" d="M737.501 633.317c-29.77 29.732-65.139 53.184-104.041 68.98s-80.543 23.616-122.491 23.003c-78.741 0.199-154.335-31.076-210.152-86.943s-87.286-131.749-87.483-210.955c-0.197-79.206 30.894-155.247 86.433-211.393s130.977-87.801 209.72-87.998c16.964-0.291 33.548 5.096 47.145 15.31 13.593 10.218 23.43 24.685 27.966 41.134 2.893 11.879 2.863 24.285-0.086 36.15s-8.729 22.829-16.837 31.939c-1.874 2.147-3.095 4.79-3.524 7.616-0.426 2.822-0.037 5.712 1.12 8.322 1.154 2.61 3.031 4.831 5.406 6.399s5.145 2.419 7.986 2.453h48.989c46.103-0.217 90.586 17.121 124.51 48.53 33.921 31.409 54.775 74.566 58.374 120.803 1.105 34.474-4.805 68.813-17.364 100.908s-31.502 61.273-55.671 85.743zM628.838 337.063h-48.989c-14.306 0.082-28.329-4.017-40.369-11.794-12.036-7.777-21.571-18.898-27.451-32.017-5.876-13.123-7.844-27.675-5.66-41.899s8.422-27.503 17.961-38.229c1.855-1.885 3.17-4.241 3.797-6.821 0.627-2.576 0.545-5.275-0.235-7.81-1.486-6.272-8.314-10.155-17.517-10.752-33.716 0.433-66.957 8.086-97.505 22.445-30.55 14.358-57.71 35.097-79.673 60.835s-38.227 55.884-47.708 88.435c-9.482 32.551-11.964 66.759-7.283 100.348 8.466 56.446 36.505 108.061 79.156 145.719s97.167 58.926 153.907 60.050h2.374c33.574 0.442 66.898-5.884 98-18.603 31.106-12.72 59.364-31.577 83.104-55.461 18.529-18.647 33.085-40.895 42.78-65.387 9.699-24.493 14.336-50.715 13.63-77.065-3.073-30.554-17.263-58.89-39.838-79.557-22.579-20.671-51.953-32.222-82.481-32.435zM513.643 546.113c24.595 0 44.535 20.055 44.535 44.796s-19.94 44.796-44.535 44.796c-24.595 0-44.535-20.055-44.535-44.796s19.94-44.796 44.535-44.796zM610.134 570.006c-7.627-4.431-13.776-11.036-17.67-18.98s-5.357-16.873-4.207-25.655c1.146-8.782 4.861-17.024 10.662-23.685 5.805-6.66 13.444-11.439 21.948-13.735s17.498-2.005 25.838 0.84c8.337 2.845 15.654 8.109 21.019 15.134s8.538 15.491 9.121 24.329c0.582 8.839-1.452 17.652-5.85 25.327-2.919 5.102-6.813 9.572-11.454 13.159s-9.938 6.218-15.594 7.743c-5.652 1.525-11.547 1.915-17.349 1.147s-11.398-2.68-16.464-5.623zM417.152 570.006c-7.63 4.422-16.392 6.47-25.179 5.885s-17.203-3.779-24.186-9.176c-6.983-5.397-12.218-12.754-15.045-21.144s-3.117-17.433-0.835-25.989c2.282-8.555 7.035-16.237 13.657-22.075 6.621-5.843 14.816-9.576 23.546-10.73 8.73-1.157 17.605 0.317 25.503 4.234s14.465 10.102 18.869 17.773c2.927 5.098 4.826 10.726 5.593 16.562 0.762 5.837 0.373 11.767-1.142 17.453s-4.132 11.015-7.697 15.684c-3.565 4.669-8.011 8.584-13.083 11.523zM340.255 448.757c-7.304-4.962-12.982-11.991-16.311-20.201s-4.165-17.226-2.397-25.913c1.768-8.684 6.058-16.647 12.327-22.878s14.236-10.453 22.891-12.126c8.656-1.676 17.609-0.728 25.729 2.722 8.12 3.446 15.041 9.24 19.886 16.647s7.395 16.091 7.329 24.957c-0.066 8.867-2.746 17.513-7.7 24.845-3.255 4.887-7.441 9.076-12.314 12.327-4.875 3.248-10.341 5.495-16.084 6.604-5.743 1.113-11.648 1.064-17.373-0.134s-11.157-3.528-15.981-6.851z" />
<glyph unicode="&#xe91b;" glyph-name="labels" data-tags="labels" d="M590.293 590.292h-369.92v-99.625c0-19.678 15.951-35.627 35.627-35.627s35.627 15.949 35.627 35.627v28.372h78.080v-184.745h-28.373c-19.676 0-35.627-15.953-35.627-35.627 0-19.678 15.951-35.627 35.627-35.627h128c19.678 0 35.627 15.949 35.627 35.627 0 19.674-15.949 35.627-35.627 35.627h-28.373v184.745h78.080v-28.372c0-19.678 15.953-35.627 35.627-35.627 19.678 0 35.627 15.949 35.627 35.627v99.625zM85.333 597.334v-341.333c0-70.694 57.308-128 128-128h597.333c70.694 0 128 57.306 128 128v341.333c0 70.692-57.306 128-128 128h-597.333c-70.692 0-128-57.308-128-128zM213.333 654.080h597.333c31.339 0 56.747-25.406 56.747-56.747v-341.333c0-31.339-25.408-56.747-56.747-56.747h-597.333c-31.34 0-56.747 25.408-56.747 56.747v341.333c0 31.34 25.406 56.747 56.747 56.747z" />
<glyph unicode="&#xe91c;" glyph-name="steps" data-tags="steps" d="M278.912 765.564c11.958-4.953 19.754-16.622 19.754-29.564v-202.667h10.667c17.673 0 32-14.327 32-31.999s-14.327-32-32-32h-106.667c-17.673 0-32 14.327-32 32s14.327 31.999 32 31.999h32v125.412l-9.373-9.373c-12.497-12.497-32.758-12.497-45.255 0s-12.497 32.758 0 45.255l64 64c9.152 9.152 22.916 11.889 34.873 6.937zM426.667 522.666c0 17.673 14.327 32 32 32h64.111c61.308 0 94.963-68.599 61.632-116.859-5.385-7.795-12.041-12.809-16.606-15.851l-76.54-50.927c-0.533-1.472-0.461-3.209 0.503-5.043 0.602-1.148 1.404-1.967 2.197-2.466 0.683-0.435 1.69-0.853 3.366-0.853h68.002c17.673 0 32-14.327 32-32s-14.327-32-32-32h-68.002c-57.412 0-89.024 63.821-58.603 109.227 5.461 8.158 12.373 13.286 16.828 16.247l76.86 51.145c1.515 2.91 1.519 6.357-0.192 9.673-1.826 3.529-4.966 5.709-9.446 5.709h-64.111c-17.673 0-32 14.327-32 31.999zM682.667 309.334c0 17.673 14.327 32 32 32h61.713c46.763 0 72.111-36.791 76.412-69.837 2.432-18.675-1.331-40.576-13.338-58.163 12.006-17.591 15.77-39.488 13.338-58.167-4.301-33.045-29.649-69.833-76.412-69.833h-61.713c-17.673 0-32 14.327-32 32s14.327 32 32 32h61.713c4.309 0 6.537 1.378 8.171 3.063 2.091 2.159 4.117 5.978 4.774 11.029 0.661 5.060-0.307 9.472-1.847 12.305-1.182 2.18-2.79 3.767-5.751 4.719l-0.354 0.017-25.165 0.883c-17.225 0.61-30.874 14.746-30.874 31.983 0 17.233 13.649 31.373 30.874 31.979l25.519 0.905c2.961 0.951 4.57 2.539 5.751 4.715 1.54 2.833 2.509 7.245 1.847 12.305-0.657 5.056-2.684 8.875-4.774 11.029-1.634 1.685-3.861 3.068-8.171 3.068h-61.713c-17.673 0-32 14.327-32 32z" />
<glyph unicode="&#xe91d;" glyph-name="settings" data-tags="settings" d="M367.361 0.406c-20.82 0.124-41.036 7.010-57.6 19.618l-88.32 65.677c-20.381 15.881-33.905 38.963-37.793 64.499-3.888 25.54 2.155 51.597 16.886 72.819 7.795 11.507 12.749 24.695 14.455 38.481 1.706 13.79 0.115 27.789-4.641 40.845l-2.56 6.822c-3.312 11.814-9.365 22.686-17.668 31.727-8.303 9.037-18.622 15.996-30.119 20.301h-6.827c-24.922 8.375-45.533 26.24-57.356 49.715s-13.903 50.667-5.79 75.665l34.987 110.88c3.221 12.847 9.15 24.857 17.392 35.228s18.604 18.861 30.395 24.904c10.981 5.655 22.995 9.024 35.315 9.903s24.692-0.748 36.365-4.786c12.71-4.276 26.272-5.384 39.508-3.228s25.745 7.509 36.439 15.596l5.546 4.265c9.681 7.721 17.505 17.515 22.896 28.66s8.21 23.357 8.251 35.736v10.235c-0.114 26.094 10.089 51.177 28.388 69.787s43.214 29.242 69.317 29.579h108.8c12.702-0.034 25.271-2.576 36.988-7.479s22.345-12.072 31.279-21.094c18.786-19.097 29.222-44.865 29.013-71.646v-11.941c-0.213-11.76 2.338-23.406 7.45-33.999 5.116-10.593 12.646-19.837 21.99-26.985l4.693-3.412c9.579-7.177 20.749-11.934 32.559-13.865 11.814-1.931 23.919-0.978 35.281 2.777l14.507 4.691c12.292 4.073 25.276 5.629 38.182 4.576s25.468-4.692 36.937-10.702c11.465-6.010 21.606-14.266 29.811-24.278 8.209-10.011 14.31-21.572 17.95-33.993l33.707-107.467c7.799-24.841 5.67-51.729-5.948-75.029-11.614-23.3-31.808-41.195-56.346-49.924l-8.533-2.987c-12.548-4.109-23.898-11.234-33.050-20.753s-15.821-21.137-19.43-33.835c-3.396-11.806-4.198-24.205-2.359-36.348 1.843-12.147 6.285-23.748 13.026-34.018l11.093-16.205c14.711-21.342 20.698-47.501 16.734-73.114-3.968-25.613-17.587-48.738-38.067-64.636l-85.76-66.103c-10.359-7.919-22.234-13.636-34.889-16.794-12.651-3.162-25.822-3.699-38.69-1.583-12.873 2.116-25.173 6.844-36.143 13.892-10.974 7.049-20.39 16.269-27.665 27.089l-5.12 7.249c-6.985 10.496-16.521 19.055-27.712 24.87s-23.676 8.704-36.288 8.393c-12.032-0.311-23.821-3.443-34.419-9.148s-19.708-13.82-26.594-23.689l-9.813-14.071c-7.275-10.897-16.708-20.19-27.715-27.307-11.007-7.113-23.355-11.9-36.283-14.063-5.533-0.542-11.107-0.542-16.64 0zM187.735 443.077c24.094-8.589 45.834-22.707 63.471-41.225 17.638-18.522 30.679-40.917 38.076-65.391v-5.12c9.213-25.442 12.238-52.715 8.826-79.556s-13.165-52.489-28.453-74.82c-2.698-2.982-4.192-6.857-4.192-10.876s1.494-7.898 4.192-10.876l91.734-69.513c1.197-0.943 2.581-1.613 4.059-1.975 1.478-0.358 3.017-0.401 4.512-0.115 1.495 0.282 2.913 0.879 4.157 1.758 1.245 0.875 2.287 2.005 3.057 3.315l9.813 14.076c14.801 21.376 34.566 38.844 57.603 50.91s48.657 18.372 74.662 18.372c26.010 0 51.631-6.306 74.667-18.372s42.799-29.534 57.6-50.91l5.12-7.676c1.835-2.603 4.574-4.429 7.68-5.12 1.425-0.209 2.88-0.128 4.275 0.239 1.391 0.367 2.697 1.011 3.831 1.894l87.893 66.53c3.076 2.441 5.103 5.965 5.658 9.852s-0.401 7.838-2.671 11.042l-11.093 16.205c-14.451 21.069-23.987 45.111-27.904 70.357-3.913 25.242-2.103 51.042 5.291 75.494 7.501 25.702 21.065 49.225 39.552 68.595s41.357 34.018 66.688 42.714l8.533 2.982c3.558 1.425 6.404 4.198 7.923 7.714s1.587 7.488 0.183 11.051l-33.28 106.191c-0.798 1.858-1.967 3.535-3.435 4.927-1.463 1.393-3.2 2.473-5.099 3.176-1.254 0.637-2.645 0.969-4.053 0.969s-2.795-0.332-4.053-0.969l-14.507-4.691c-24.538-8.095-50.679-10.112-76.169-5.878-25.493 4.234-49.574 14.593-70.178 30.186l-1.707 3.838c-19.767 14.964-35.797 34.304-46.827 56.503s-16.764 46.651-16.747 71.436v13.22c0.077 4.111-1.451 8.089-4.267 11.088-2.453 2.217-5.649 3.435-8.96 3.412h-108.373c-1.737-0.108-3.435-0.559-5.001-1.326-1.562-0.767-2.961-1.834-4.109-3.142-1.152-1.308-2.031-2.829-2.59-4.477s-0.789-3.391-0.674-5.128v-10.662c0.004-25.462-5.841-50.584-17.086-73.431s-27.586-42.809-47.766-58.347l-5.547-4.265c-21.772-16.568-47.287-27.529-74.296-31.918s-54.684-2.068-80.585 6.756c-1.938 0.65-4.035 0.65-5.973 0-2.408-1.462-4.221-3.728-5.12-6.397l-35.413-111.309c-1.234-3.789-0.945-7.91 0.807-11.494 1.752-3.58 4.829-6.34 8.58-7.693l7.68-2.133zM512 277.334c-29.534 0-58.406 8.759-82.965 25.169-24.558 16.405-43.698 39.731-55.001 67.017s-14.26 57.314-8.498 86.281c5.762 28.966 19.985 55.578 40.87 76.462s47.495 35.107 76.462 40.87c28.966 5.762 58.995 2.804 86.281-8.498s50.611-30.443 67.017-55.001c16.41-24.559 25.169-53.431 25.169-82.965 0-39.607-15.731-77.589-43.738-105.596s-65.988-43.738-105.596-43.738zM512 490.667c-12.659 0-25.033-3.755-35.558-10.786-10.522-7.031-18.726-17.028-23.569-28.723s-6.114-24.563-3.644-36.975c2.47-12.416 8.567-23.821 17.515-32.772 8.951-8.947 20.356-15.044 32.772-17.515 12.412-2.47 25.28-1.203 36.975 3.644 11.695 4.843 21.692 13.047 28.723 23.569 7.031 10.526 10.786 22.899 10.786 35.558 0 16.973-6.741 33.254-18.743 45.257s-28.284 18.743-45.257 18.743z" />
<glyph unicode="&#xe91e;" glyph-name="locations" data-tags="locations" d="M512 669.333c-106.571 0-201.143-90.671-201.143-205.341 0-30.229 11.677-63.019 31.704-96.55 19.899-33.314 46.865-65.391 74.548-93.653 27.593-28.164 55.287-51.925 76.134-68.668 7.189-5.773 13.538-10.692 18.756-14.647 5.218 3.955 11.567 8.875 18.756 14.647 20.847 16.742 48.542 40.503 76.134 68.668 27.682 28.262 54.647 60.339 74.547 93.653 20.028 33.532 31.706 66.321 31.706 96.55 0 114.67-94.571 205.341-201.143 205.341zM512 155.986c-15.424-23.155-15.428-23.151-15.437-23.147l-0.068 0.051-0.162 0.111-0.572 0.401c-0.486 0.346-1.182 0.836-2.078 1.476-1.788 1.28-4.365 3.149-7.616 5.555-6.498 4.817-15.714 11.814-26.739 20.672-22.012 17.673-51.456 42.914-81.009 73.084-29.46 30.076-59.637 65.664-82.595 104.098-22.83 38.225-39.724 81.271-39.724 125.705 0 146.674 120.197 261.342 256 261.342s256-114.668 256-261.342c0-44.433-16.896-87.479-39.723-125.705-22.959-38.434-53.137-74.022-82.598-104.098-29.551-30.17-58.995-55.411-81.007-73.084-11.025-8.858-20.241-15.855-26.739-20.672-3.251-2.406-5.828-4.275-7.616-5.555-0.896-0.64-1.591-1.131-2.078-1.476l-0.572-0.401-0.162-0.111-0.051-0.038c-0.009-0.004-0.030-0.021-15.454 23.134zM512 155.986l15.454-23.134c-9.31-6.46-21.581-6.473-30.891-0.013l15.437 23.147zM512 519.996c-30.298 0-54.857-25.074-54.857-56.003 0-30.925 24.559-56 54.857-56s54.857 25.075 54.857 56c0 30.929-24.559 56.003-54.857 56.003zM402.286 463.993c0 61.859 49.119 112.005 109.714 112.005s109.713-50.145 109.713-112.005c0-61.854-49.118-112-109.713-112s-109.714 50.146-109.714 112z" />
<glyph unicode="&#xe91f;" glyph-name="clock" data-tags="clock" d="M542.557 457.383h92.16c8.149 0 15.963-3.234 21.726-8.994 5.76-5.764 8.994-13.577 8.994-21.726 0-8.145-3.234-15.957-8.994-21.723-5.764-5.76-13.577-8.998-21.726-8.998h-122.88c-8.145 0-15.963 3.238-21.723 8.998-5.76 5.764-8.998 13.577-8.998 21.723v122.882c0 8.147 3.238 15.961 8.998 21.723s13.577 8.998 21.723 8.998c8.149 0 15.963-3.237 21.726-8.998 5.76-5.761 8.994-13.575 8.994-21.723v-92.162zM341.329 682.095c50.519 33.755 109.914 51.773 170.671 51.773 40.341 0 80.29-7.946 117.559-23.384 37.275-15.439 71.138-38.067 99.665-66.592s51.153-62.391 66.59-99.663c15.441-37.27 23.386-77.219 23.386-117.56 0-60.757-18.018-120.154-51.772-170.671-33.758-50.517-81.732-89.894-137.869-113.143-56.132-23.253-117.901-29.338-177.489-17.485-59.593 11.857-114.33 41.114-157.293 84.074-42.963 42.965-72.221 97.702-84.074 157.291-11.853 59.593-5.77 121.361 17.482 177.494s62.626 104.111 113.144 137.867zM375.463 222.324c40.415-27.004 87.931-41.417 136.537-41.417 65.181 0 127.689 25.894 173.777 71.983s71.983 108.599 71.983 173.777c0 48.606-14.413 96.122-41.417 136.537s-65.387 71.915-110.293 90.516c-44.907 18.601-94.323 23.468-141.995 13.985s-91.464-32.889-125.834-67.259-57.776-78.16-67.259-125.834c-9.483-47.672-4.616-97.088 13.985-141.995s50.101-83.285 90.516-110.293z" />
<glyph unicode="&#xe920;" glyph-name="bucket" data-tags="bucket" d="M484.622 669.333c-25.202 0-45.631-20.892-45.631-46.666v-9.334h146.018v9.334c0 25.774-20.428 46.666-45.631 46.666h-54.755zM639.765 613.333h118.635c15.122 0 27.379-12.535 27.379-28s-12.255-28-27.379-28h-11.405l-28.528-335.563c-4.514-53.054-47.94-93.771-100.008-93.771h-212.918c-52.069 0-95.495 40.717-100.005 93.771l-28.531 335.563h-11.402c-15.12 0-27.379 12.535-27.379 28s12.258 28 27.379 28h118.637v9.334c0 56.701 44.942 102.666 100.385 102.666h54.755c55.442 0 100.386-45.965 100.386-102.666v-9.334zM331.965 557.333l28.12-330.709c2.049-24.118 21.789-42.625 45.457-42.625h212.918c23.67 0 43.405 18.507 45.457 42.625l28.12 330.709h-360.070zM448.12 501.333c-15.122 0-27.379-12.533-27.379-28v-205.334c0-15.467 12.255-28 27.379-28 15.118 0 27.379 12.533 27.379 28v205.334c0 15.467-12.261 28-27.379 28zM575.88 501.333c-15.118 0-27.379-12.533-27.379-28v-205.334c0-15.467 12.261-28 27.379-28 15.122 0 27.379 12.533 27.379 28v205.334c0 15.467-12.255 28-27.379 28z" />
<glyph unicode="&#xe921;" glyph-name="arrow-big-up" data-tags="arrow-big-up" d="M512 768.001c8.747 0 17.109-3.579 23.147-9.905l224-234.667c12.203-12.785 11.733-33.039-1.050-45.242-12.787-12.203-33.041-11.733-45.244 1.050l-168.853 176.895v-538.798c0-17.673-14.327-32-32-32s-32 14.327-32 32v538.798l-168.852-176.895c-12.203-12.783-32.459-13.252-45.243-1.050s-13.255 32.457-1.052 45.242l224.001 234.667c6.037 6.326 14.4 9.905 23.147 9.905z" />
<glyph unicode="&#xe922;" glyph-name="arrow-big-down" data-tags="arrow-big-down" d="M512 85.333c8.747 0 17.109 3.58 23.147 9.903l224 234.667c12.203 12.787 11.733 33.041-1.050 45.244-12.787 12.203-33.041 11.733-45.244-1.050l-168.853-176.896v538.799c0 17.673-14.327 32-32 32s-32-14.327-32-32v-538.799l-168.852 176.896c-12.203 12.783-32.459 13.252-45.243 1.050s-13.255-32.457-1.052-45.244l224.001-234.667c6.037-6.323 14.4-9.903 23.147-9.903z" />
<glyph unicode="&#xe923;" glyph-name="arrow-big-left" data-tags="arrow-big-left" d="M170.666 426.666c0 8.747 3.579 17.109 9.905 23.147l234.667 224.001c12.785 12.203 33.039 11.732 45.242-1.052s11.733-33.040-1.050-45.243l-176.895-168.852h538.798c17.673 0 32-14.327 32-32s-14.327-32-32-32h-538.798l176.895-168.853c12.783-12.203 13.252-32.457 1.050-45.244-12.203-12.783-32.457-13.252-45.242-1.050l-234.667 224c-6.326 6.037-9.905 14.4-9.905 23.147z" />
<glyph unicode="&#xe924;" glyph-name="arrow-big-right" data-tags="arrow-big-right" d="M853.334 426.666c0 8.747-3.58 17.109-9.903 23.147l-234.667 224.001c-12.787 12.203-33.041 11.732-45.244-1.052s-11.733-33.040 1.050-45.243l176.896-168.852h-538.799c-17.673 0-32-14.327-32-32s14.327-32 32-32h538.799l-176.896-168.853c-12.783-12.203-13.252-32.457-1.050-45.244 12.203-12.783 32.457-13.252 45.244-1.050l234.667 224c6.323 6.037 9.903 14.4 9.903 23.147z" />
<glyph unicode="&#xe925;" glyph-name="box" data-tags="box" d="M498.91 765.201c8.329 3.733 17.852 3.733 26.18 0l309.333-138.667c11.507-5.158 18.91-16.591 18.91-29.2v-341.333c0-12.608-7.403-24.043-18.91-29.201l-309.333-138.667c-8.329-3.733-17.852-3.733-26.18 0l-309.333 138.667c-11.506 5.158-18.91 16.593-18.91 29.201v341.333c0 12.609 7.404 24.043 18.91 29.2l309.333 138.667zM234.667 547.921v-271.197l245.333-109.978v271.198l-245.333 109.977zM544 437.944v-271.198l245.333 109.978v271.197l-245.333-109.977zM743.104 597.334l-231.104-103.599-231.104 103.599 231.104 103.599 231.104-103.599z" />
<glyph unicode="&#xe926;" glyph-name="folder" data-tags="folder" d="M213.333 622.667c0 56.701 45.965 102.667 102.667 102.667h151.674c37.572 0 72.141-20.522 90.133-53.504l31.906-58.496h118.289c56.7 0 102.665-45.965 102.665-102.665v-280.004c0-56.7-45.965-102.665-102.665-102.665h-392.002c-56.701 0-102.667 45.965-102.667 102.665v392.002zM269.333 557.334v-326.669c0-25.771 20.893-46.665 46.667-46.665h392.002c25.771 0 46.665 20.894 46.665 46.665v280.004c0 25.771-20.894 46.665-46.665 46.665h-438.669zM269.333 613.334v9.333c0 25.773 20.893 46.667 46.667 46.667h151.674c17.079 0 32.794-9.328 40.969-24.32l17.28-31.68h-256.589z" />
<glyph unicode="&#xe927;" glyph-name="search" data-tags="search" d="M474.667 669.334c-113.402 0-205.333-91.931-205.333-205.333 0-113.404 91.931-205.333 205.333-205.333 113.404 0 205.333 91.93 205.333 205.333s-91.93 205.333-205.333 205.333zM213.333 464c0 144.33 117.003 261.333 261.333 261.333s261.333-117.003 261.333-261.333c0-62.080-21.645-119.104-57.801-163.934l124.267-124.267c10.935-10.935 10.935-28.663 0-39.599s-28.663-10.935-39.599 0l-124.267 124.267c-44.83-36.156-101.854-57.801-163.934-57.801-144.33 0-261.333 117.005-261.333 261.333z" />
<glyph unicode="&#xe928;" glyph-name="service" data-tags="service" d="M330.036 712.865c5.193 7.79 13.935 12.468 23.297 12.468h317.331c9.365 0 18.108-4.679 23.3-12.468l74.667-112c3.063-4.599 4.702-10.004 4.702-15.532v-330.609l35.332-88.324c3.447-8.627 2.394-18.402-2.812-26.099-5.21-7.693-13.897-12.301-23.189-12.301h-541.331c-9.291 0-17.977 4.608-23.186 12.301-5.209 7.697-6.262 17.472-2.811 26.099l35.331 88.324v330.609c0 5.528 1.636 10.932 4.703 15.532l74.667 112zM368.319 669.334l-37.333-56h362.028l-37.333 56h-287.361zM717.333 557.334h-410.667v-307.998c0-3.563-0.68-7.095-2.003-10.402l-21.973-54.933h458.617l-21.973 54.933c-1.323 3.307-2.001 6.839-2.001 10.402v307.998zM428.002 501.334c15.462 0 27.998-12.535 27.998-27.998v-37.333c0-30.929 25.071-56.004 56-56.004s56 25.075 56 56.004v37.333c0 15.462 12.535 27.998 27.998 27.998 15.467 0 28.002-12.535 28.002-27.998v-37.333c0-61.858-50.146-112-112-112s-112 50.142-112 112v37.333c0 15.462 12.536 27.998 28.002 27.998z" />
<glyph unicode="&#xe929;" glyph-name="shipment" data-tags="shipment" d="M330.456 713.481c5.247 7.433 13.777 11.853 22.875 11.853h317.338c9.097 0 17.63-4.42 22.874-11.853l98.334-139.306c12.228-17.322 18.79-38.004 18.79-59.206v-284.304c0-56.7-45.965-102.665-102.665-102.665h-392.004c-56.7 0-102.665 45.965-102.665 102.665v284.304c0 21.202 6.564 41.885 18.791 59.206l98.332 139.306zM367.84 669.334l-79.058-112h195.216v112h-116.158zM539.994 669.334v-112h195.226l-79.057 112h-116.169zM754.667 501.334h-485.334v-270.669c0-25.771 20.893-46.665 46.666-46.665h392.004c25.771 0 46.665 20.894 46.665 46.665v270.669z" />
<glyph unicode="&#xe92a;" glyph-name="gallery" data-tags="gallery" d="M213.335 622.667c0 56.701 45.965 102.667 102.666 102.667h392.001c56.7 0 102.665-45.965 102.665-102.667v-392.002c0-56.7-45.965-102.665-102.665-102.665h-392.001c-56.701 0-102.666 45.965-102.666 102.665v46.43c-0.002 0.171-0.002 0.346 0 0.516v345.056zM269.335 267.644v-36.979c0-25.771 20.893-46.665 46.666-46.665h392.001c25.771 0 46.665 20.894 46.665 46.665v165.794c-0.9 0.811-1.762 1.685-2.573 2.628l-90.138 104.926c-19.098 22.231-53.696 21.551-71.91-1.344l-0.213-0.277c-0.017-0.017-0.030-0.038-0.047-0.060-3.443-4.45-45.649-59.034-82.074-105.579l62.861-73.173c10.078-11.729 8.738-29.41-2.995-39.484-11.729-10.078-29.406-8.738-39.484 2.991l-77.504 90.219c-0.239 0.273-0.478 0.546-0.708 0.828l-11.925 13.879c-19.157 22.302-53.915 21.547-72.085-1.566l-96.536-122.803zM469.82 439.202c34.901 44.663 72.777 93.649 75.703 97.44l0.090 0.116 0.375 0.477 0.119 0.153c40.047 50.525 116.271 52.074 158.327 3.119l50.231-58.475v140.636c0 25.773-20.894 46.667-46.665 46.667h-392.001c-25.773 0-46.666-20.893-46.666-46.667v-264.412l52.512 66.799c36.811 46.827 104.567 51.942 147.974 14.148z" />
<glyph unicode="&#xe92b;" glyph-name="filter" data-tags="filter" d="M216.098 709.463c4.662 9.701 14.473 15.871 25.236 15.871h541.331c10.765 0 20.574-6.17 25.237-15.871s3.354-21.216-3.371-29.621l-170.304-212.881c-6.622-8.273-10.227-18.556-10.227-29.154v-244.476c0-36.079-29.252-65.331-65.335-65.331h-93.329c-36.083 0-65.335 29.252-65.335 65.331v244.476c0 10.598-3.606 20.881-10.226 29.154l-170.305 212.881c-6.724 8.405-8.035 19.92-3.372 29.621zM299.592 669.334l133.911-167.39c14.562-18.206 22.498-40.823 22.498-64.137v-244.476c0-5.154 4.177-9.331 9.335-9.331h93.329c5.158 0 9.335 4.177 9.335 9.331v244.476c0 23.313 7.936 45.931 22.498 64.137l133.909 167.39h-424.817z" />
<glyph unicode="&#xe92c;" glyph-name="arrow-circle-up" data-tags="arrow-circle-up" d="M512 71.111c70.323 0 139.063 20.855 197.534 59.925 58.47 39.066 104.043 94.596 130.957 159.569 26.91 64.969 33.95 136.457 20.233 205.427-13.722 68.972-47.582 132.326-97.31 182.052-49.724 49.725-113.079 83.589-182.050 97.308s-140.459 6.678-205.429-20.233c-64.969-26.911-120.499-72.484-159.568-130.955s-59.922-127.212-59.922-197.535c0-94.302 37.46-184.738 104.14-251.418 33.017-33.015 72.213-59.204 115.351-77.073s89.372-27.068 136.066-27.068zM380.799 492.803l106.668 101.688c1.54 1.505 3.349 2.71 5.333 3.555 1.673 1.51 3.597 2.714 5.687 3.555 4.258 1.881 8.858 2.853 13.513 2.853 4.651 0 9.254-0.972 13.508-2.853 4.365-1.692 8.354-4.23 11.733-7.467l106.667-106.666c6.699-6.694 10.458-15.778 10.458-25.246s-3.759-18.547-10.458-25.246c-6.694-6.694-15.774-10.453-25.242-10.453s-18.551 3.759-25.246 10.453l-45.867 46.225v-198.758c0-9.429-3.746-18.47-10.415-25.139-6.665-6.669-15.71-10.415-25.139-10.415s-18.475 3.746-25.143 10.415c-6.669 6.669-10.415 15.71-10.415 25.139v201.246l-46.575-44.446c-6.837-6.507-15.979-10.031-25.414-9.796s-18.391 4.207-24.898 11.042c-6.506 6.839-10.031 15.979-9.797 25.412 0.233 9.438 4.205 18.394 11.042 24.9z" />
<glyph unicode="&#xe92d;" glyph-name="arrow-circle-down" data-tags="arrow-circle-down" d="M512 782.229c-70.323 0-139.066-20.853-197.537-59.922s-104.044-94.599-130.955-159.568c-26.911-64.968-33.952-136.46-20.233-205.431s47.583-132.326 97.308-182.050c49.725-49.724 113.079-83.588 182.049-97.306 68.971-13.722 140.463-6.682 205.431 20.233 64.969 26.91 120.499 72.482 159.569 130.953s59.921 127.215 59.921 197.538c0 94.298-37.461 184.734-104.141 251.414-33.015 33.016-72.209 59.206-115.349 77.075-43.136 17.868-89.374 27.065-136.064 27.065zM643.2 360.542l-106.667-101.692c-1.545-1.502-3.354-2.709-5.333-3.554-1.673-1.51-3.601-2.714-5.692-3.554-4.254-1.882-8.858-2.854-13.508-2.854-4.655 0-9.254 0.973-13.513 2.854-4.365 1.69-8.35 4.228-11.733 7.467l-106.666 106.667c-6.695 6.694-10.456 15.774-10.456 25.242s3.761 18.551 10.456 25.246c6.695 6.694 15.776 10.458 25.245 10.458s18.549-3.763 25.242-10.458l45.867-46.221v198.754c0 9.43 3.746 18.473 10.415 25.141s15.714 10.414 25.143 10.414c9.429 0 18.475-3.746 25.139-10.414 6.669-6.668 10.415-15.712 10.415-25.141v-201.246l46.579 44.446c6.835 6.507 15.979 10.031 25.412 9.796 9.434-0.23 18.389-4.203 24.896-11.042 6.507-6.835 10.031-15.979 9.801-25.412-0.235-9.434-4.207-18.389-11.042-24.896z" />
<glyph unicode="&#xe92e;" glyph-name="arrow-circle-left" data-tags="arrow-circle-left" d="M867.556 426.669c0 70.319-20.851 139.063-59.921 197.534s-94.601 104.044-159.569 130.955c-64.969 26.911-136.461 33.952-205.431 20.233s-132.325-47.583-182.050-97.308c-49.725-49.725-83.589-113.079-97.308-182.051s-6.678-140.463 20.233-205.431c26.911-64.969 72.483-120.499 130.954-159.569 58.471-39.066 127.215-59.921 197.538-59.921 94.298 0 184.734 37.461 251.413 104.141 33.015 33.015 59.209 72.213 77.077 115.349 17.865 43.14 27.063 89.374 27.063 136.068zM445.869 295.469l-101.69 106.667c-1.505 1.54-2.711 3.349-3.555 5.333-1.51 1.673-2.714 3.597-3.556 5.687-1.881 4.254-2.853 8.858-2.853 13.513 0 4.651 0.972 9.254 2.853 13.508 1.692 4.365 4.23 8.354 7.467 11.733l106.668 106.668c6.694 6.695 15.774 10.457 25.242 10.457s18.551-3.761 25.246-10.457c6.694-6.695 10.458-15.776 10.458-25.244s-3.763-18.549-10.458-25.244l-46.221-45.867h198.754c9.429 0 18.475-3.746 25.143-10.415 6.665-6.669 10.411-15.71 10.411-25.139 0-9.434-3.746-18.475-10.411-25.143-6.669-6.669-15.714-10.415-25.143-10.415h-201.246l44.446-46.575c6.507-6.839 10.031-15.979 9.796-25.417-0.23-9.434-4.203-18.389-11.042-24.896-6.835-6.507-15.979-10.031-25.412-9.796-9.434 0.23-18.389 4.203-24.896 11.042z" />
<glyph unicode="&#xe92f;" glyph-name="arrow-circle-right" data-tags="arrow-circle-right" d="M156.441 426.676c0-70.323 20.853-139.068 59.922-197.538s94.599-104.043 159.569-130.953c64.969-26.914 136.461-33.954 205.432-20.233 68.971 13.717 132.322 47.582 182.050 97.306 49.724 49.724 83.588 113.079 97.306 182.050 13.722 68.971 6.677 140.463-20.233 205.431s-72.482 120.5-130.953 159.569-127.215 59.922-197.538 59.922c-94.298 0-184.736-37.46-251.415-104.14-33.016-33.016-59.206-72.212-77.075-115.351s-27.065-89.373-27.065-136.064zM578.129 557.874l101.687-106.665c1.506-1.545 2.714-3.354 3.558-5.333 1.51-1.673 2.714-3.601 3.554-5.692 1.882-4.254 2.854-8.858 2.854-13.508 0-4.655-0.973-9.259-2.854-13.513-1.69-4.365-4.228-8.354-7.467-11.733l-106.667-106.667c-6.694-6.694-15.774-10.458-25.246-10.458-9.468 0-18.547 3.763-25.242 10.458s-10.458 15.774-10.458 25.246c0 9.468 3.763 18.547 10.458 25.242l46.221 45.867h-198.755c-9.43 0-18.473 3.746-25.142 10.415s-10.414 15.71-10.414 25.143c0 9.429 3.746 18.47 10.414 25.139s15.712 10.415 25.142 10.415h201.242l-44.442 46.579c-6.507 6.835-10.031 15.977-9.796 25.412 0.23 9.435 4.203 18.391 11.038 24.898 6.839 6.507 15.979 10.031 25.417 9.798 9.434-0.233 18.389-4.205 24.896-11.042z" />
<glyph unicode="&#xe930;" glyph-name="border-plus" data-tags="border-plus" d="M315.998 669.334c-25.773 0-46.666-20.893-46.666-46.667v-392.002c0-25.771 20.893-46.665 46.666-46.665h392.004c25.771 0 46.665 20.894 46.665 46.665v392.002c0 25.773-20.894 46.667-46.665 46.667h-392.004zM213.333 622.667c0 56.701 45.965 102.667 102.665 102.667h392.004c56.7 0 102.665-45.965 102.665-102.667v-392.002c0-56.7-45.965-102.665-102.665-102.665h-392.004c-56.7 0-102.665 45.965-102.665 102.665v392.002zM511.996 576c15.462 0 27.998-12.536 27.998-28v-93.335h93.333c15.462 0 27.998-12.535 27.998-27.998s-12.535-27.998-27.998-27.998h-93.333v-93.338c0-15.462-12.535-27.998-27.998-27.998s-27.998 12.535-27.998 27.998v93.338h-93.334c-15.464 0-28 12.535-28 27.998s12.536 27.998 28 27.998h93.334v93.335c0 15.464 12.535 28 27.998 28z" />
<glyph unicode="&#xe931;" glyph-name="date-time" data-tags="date-time" d="M362.666 725.334c15.464 0 28-12.536 28-28v-46.667h242.669v46.667c0 15.464 12.535 28 27.998 28s27.998-12.536 27.998-28v-46.667h18.671c56.7 0 102.665-45.965 102.665-102.667v-317.335c0-56.7-45.965-102.665-102.665-102.665h-392.002c-56.701 0-102.667 45.965-102.667 102.665v317.335c0 56.701 45.965 102.667 102.667 102.667h18.667v46.667c0 15.464 12.536 28 28 28zM334.666 594.667h-18.667c-25.773 0-46.667-20.893-46.667-46.667v-317.335c0-25.771 20.893-46.665 46.667-46.665h392.002c25.771 0 46.665 20.894 46.665 46.665v317.335c0 25.773-20.894 46.667-46.665 46.667h-18.671v-28c0-15.464-12.535-28-27.998-28s-27.998 12.536-27.998 28v28h-242.669v-28c0-15.464-12.536-28-28-28s-28 12.536-28 28v28zM493.332 529.334c15.462 0 28.002-12.536 28.002-28v-102.665h102.665c15.462 0 27.998-12.54 27.998-28.002s-12.535-28.002-27.998-28.002h-130.667c-15.462 0-28.002 12.54-28.002 28.002v130.667c0 15.464 12.54 28 28.002 28z" />
<glyph unicode="&#xe932;" glyph-name="payment" data-tags="payment" d="M213.333 582.096c0 55.544 45.965 100.571 102.667 100.571h392.002c56.7 0 102.665-45.027 102.665-100.571v-310.859c0-55.543-45.965-100.57-102.665-100.57h-392.002c-56.701 0-102.667 45.026-102.667 100.57v310.859zM316 627.81c-25.773 0-46.667-20.467-46.667-45.714v-64h485.333v64c0 25.247-20.894 45.714-46.665 45.714h-392.002zM754.667 463.237h-485.333v-192c0-25.246 20.893-45.713 46.667-45.713h392.002c25.771 0 46.665 20.467 46.665 45.713v192zM325.333 344.38c0 15.151 12.536 27.43 28 27.43h93.335c15.462 0 27.998-12.279 27.998-27.43 0-15.147-12.535-27.426-27.998-27.426h-93.335c-15.464 0-28 12.279-28 27.426zM624 344.38c0 15.151 12.535 27.43 27.998 27.43h18.671c15.462 0 27.998-12.279 27.998-27.43 0-15.147-12.535-27.426-27.998-27.426h-18.671c-15.462 0-27.998 12.279-27.998 27.426z" />
<glyph unicode="&#xe933;" glyph-name="email" data-tags="email" d="M213.333 582.096c0 55.544 45.965 100.571 102.667 100.571h392.002c56.7 0 102.665-45.027 102.665-100.571v-310.859c0-55.543-45.965-100.57-102.665-100.57h-392.002c-56.701 0-102.667 45.026-102.667 100.57v310.859zM270.121 590.507c-0.518-2.726-0.788-5.538-0.788-8.411v-310.859c0-25.246 20.893-45.713 46.667-45.713h392.002c25.771 0 46.665 20.467 46.665 45.713v310.859c0 2.873-0.269 5.684-0.789 8.411l-223.326-193.527c-10.594-9.178-26.509-9.178-37.103 0l-223.327 193.527zM311.803 627.627l200.197-173.483 200.196 173.483c-1.382 0.121-2.782 0.183-4.194 0.183h-392.002c-1.414 0-2.814-0.062-4.197-0.183z" />
<glyph unicode="&#xe934;" glyph-name="pennant" data-tags="pennant" d="M269.101 704.975c28.811 10.479 71.722 20.349 130.902 20.349 61.045 0 106.837-15.428 146.982-29.596 1.408-0.497 2.808-0.993 4.207-1.487 38.576-13.631 70.508-24.916 110.141-24.916 44.842 0 72.837 4.487 88.876 8.496 8.001 2 12.992 3.871 15.592 4.991 1.201 0.512 1.897 0.87 2.149 1.001 11.212 6.934 25.811 5.104 34.976-4.494 9.387-9.835 10.349-24.995 2.28-35.936l-118.429-160.721 118.429-160.721c7.329-9.947 7.273-23.526-0.146-33.41l-22.399 16.802c22.399-16.802 22.39-16.82 22.373-16.834l-0.026-0.036-0.053-0.077-0.122-0.161-0.284-0.357c-0.203-0.259-0.441-0.553-0.709-0.875-0.539-0.651-1.218-1.425-2.040-2.314-1.645-1.771-3.87-3.969-6.741-6.433-5.77-4.949-14.090-10.899-25.528-16.619-22.994-11.497-57.695-21.622-108.185-21.622-52.645 0-99.33 20.754-139.876 38.786-0.721 0.32-1.442 0.639-2.163 0.959-42.957 19.092-79.542 34.922-119.295 34.922-42.983 0-79.608-8.605-105.479-17.226-10.244-3.412-18.738-6.811-25.189-9.625v-131.803c0-15.462-12.537-28.004-27.999-28.004s-28.001 12.537-28.001 28.004v503.991c0 8.505 3.868 16.553 10.507 21.86l17.492-21.86c-17.492 21.86-17.506 21.854-17.492 21.86l0.107 0.090 0.128 0.101 0.308 0.24 0.833 0.628c0.651 0.483 1.502 1.092 2.549 1.81 2.093 1.434 4.991 3.284 8.715 5.417 7.46 4.263 18.234 9.611 32.612 14.832zM269.338 644.243v-296.256c2.401 0.855 4.893 1.715 7.482 2.582 30.134 10.045 72.832 20.101 123.188 20.101 52.645 0 99.325-20.754 139.874-38.786 0.721-0.32 1.449-0.639 2.163-0.959 42.957-19.092 79.542-34.922 119.294-34.922 41.907 0 67.672 8.173 82.198 15.238l-114.075 154.813c-7.274 9.877-7.274 23.344 0 33.215l85.752 116.371c-15.294-1.432-33.144-2.317-53.875-2.317-49.479 0-89.639 14.233-126.741 27.386-2.090 0.741-4.173 1.477-6.246 2.211-39.192 13.832-77.396 26.403-128.343 26.403-52.819 0-89.24-8.791-111.765-16.981-7.953-2.891-14.216-5.725-18.905-8.103z" />
<glyph unicode="&#xe935;" glyph-name="calendar-pencil" data-tags="calendar-pencil" d="M369.334 740.001c0 15.463-12.535 28-28 28s-28-12.535-28-28v-46.667h-18.667c-56.701 0-102.667-45.965-102.667-102.667v-317.335c0-56.7 45.966-102.663 102.667-102.663h153.333v56h-153.333c-25.773 0-46.667 20.894-46.667 46.663v317.335c0 25.773 20.893 46.667 46.667 46.667h18.667v-28c0-15.463 12.535-28 28-28s28 12.535 28 28v28h242.669v-28c0-15.463 12.535-28 27.998-28s27.998 12.535 27.998 28v28h18.671c25.771 0 46.663-20.893 46.663-46.667v-164h56v164c0 56.701-45.965 102.667-102.663 102.667h-18.671v46.667c0 15.463-12.535 28-27.998 28s-27.998-12.535-27.998-28v-46.667h-242.669v46.667zM332 544.001c-15.463 0-28-12.535-28-27.998 0-15.467 12.535-28.002 28-28.002h317.335c15.462 0 27.998 12.535 27.998 28.002 0 15.462-12.535 27.998-27.998 27.998h-317.335zM741.922 374.426c12.762 12.766 33.455 12.766 46.221 0l34.283-34.283c12.766-12.766 12.766-33.459 0-46.221l-185.809-185.809c-1.839-1.843-4.16-3.136-6.694-3.729l-79.373-18.679c-4.723-1.109-9.681 0.303-13.111 3.733s-4.843 8.388-3.733 13.111l18.679 79.373c0.593 2.534 1.886 4.855 3.729 6.694l185.809 185.809zM768.333 354.62c-1.822 1.822-4.779 1.822-6.599 0v0l-24.311-24.311 40.887-40.887 24.311 24.311c1.822 1.822 1.822 4.779 0 6.599l-34.287 34.287zM758.503 269.611l-40.892 40.892-138.871-138.876-12.582-53.47 53.47 12.582 138.876 138.871z" />
<glyph unicode="&#xe936;" glyph-name="calendar-recurring" data-tags="calendar-recurring" d="M377.537 774.463c0 15.464-12.536 28-28 28s-28-12.536-28-28v-46.667h-18.667c-56.701 0-102.667-45.965-102.667-102.667v-317.335c0-56.7 45.966-102.665 102.667-102.665h71.555v56h-71.555c-25.773 0-46.667 20.894-46.667 46.665v317.335c0 25.773 20.893 46.667 46.667 46.667h18.667v-28c0-15.464 12.536-28 28-28s28 12.536 28 28v28h242.669v-28c0-15.464 12.535-28 27.998-28s27.998 12.536 27.998 28v28h18.671c25.771 0 46.665-20.893 46.665-46.667v-164h56v164c0 56.701-45.965 102.667-102.665 102.667h-18.671v46.667c0 15.464-12.535 28-27.998 28s-27.998-12.536-27.998-28v-46.667h-242.669v46.667zM340.203 578.463c-15.464 0-28-12.535-28-27.998 0-15.467 12.536-28.002 28-28.002h317.335c15.462 0 27.998 12.535 27.998 28.002 0 15.462-12.535 27.998-27.998 27.998h-317.335zM622.138 438.606c6.818-7.578 6.204-19.251-1.374-26.074l-25.779-23.198h62.66c91.763 0 166.153-74.389 166.153-166.157v-6.153c0-10.197-8.265-18.462-18.462-18.462-10.193 0-18.458 8.265-18.458 18.462v6.153c0 71.373-57.86 129.233-129.233 129.233h-62.66l25.779-23.202c7.578-6.818 8.192-18.492 1.374-26.069-6.822-7.582-18.496-8.196-26.074-1.374l-61.538 55.386c-3.891 3.499-6.11 8.486-6.11 13.722 0 5.231 2.219 10.219 6.11 13.722l61.538 55.386c7.578 6.818 19.251 6.204 26.074-1.374zM448.417 297.025c10.193 0 18.462-8.265 18.462-18.462v-6.153c0-71.373 57.856-129.229 129.229-129.229h62.66l-25.779 23.198c-7.578 6.822-8.192 18.496-1.374 26.074 6.822 7.578 18.496 8.192 26.074 1.374l61.538-55.386c3.891-3.503 6.11-8.491 6.11-13.722 0-5.235-2.219-10.223-6.11-13.726l-61.538-55.381c-7.578-6.822-19.251-6.208-26.074 1.37-6.818 7.582-6.204 19.251 1.374 26.074l25.779 23.202h-62.66c-91.763 0-166.153 74.389-166.153 166.153v6.153c0 10.197 8.265 18.462 18.462 18.462z" />
<glyph unicode="&#xe937;" glyph-name="cart" data-tags="cart" d="M213.333 697.334c0 15.464 12.536 28 28 28h84c12.848 0 24.048-8.745 27.164-21.209l22.698-90.791h407.47c8.555 0 16.64-3.91 21.952-10.615s7.266-15.471 5.303-23.798l-61.12-259.769c-10.91-46.374-52.297-79.151-99.938-79.151h-154.057c-46.583 0-87.327 31.364-99.247 76.395l-69.392 262.147-22.695 90.792h-62.138c-15.464 0-28 12.536-28 28zM389.709 557.334l59.985-226.607c5.419-20.471 23.94-34.726 45.111-34.726h154.057c21.658 0 40.465 14.899 45.427 35.977l53.026 225.357h-357.606zM400 165.334c0 20.617 16.715 37.333 37.333 37.333s37.333-16.717 37.333-37.333-16.717-37.333-37.333-37.333c-20.619 0-37.333 16.717-37.333 37.333zM661.333 165.334c0 20.617 16.713 37.333 37.333 37.333 20.617 0 37.333-16.717 37.333-37.333s-16.717-37.333-37.333-37.333c-20.621 0-37.333 16.717-37.333 37.333z" />
<glyph unicode="&#xe938;" glyph-name="calendar-check" data-tags="calendar-check" d="M362.666 725.334c15.464 0 28-12.536 28-28v-46.667h242.665v46.667c0 15.464 12.54 28 28.002 28s27.998-12.536 27.998-28v-46.667h18.667c56.704 0 102.669-45.965 102.669-102.667v-196h-56v196c0 25.773-20.894 46.667-46.669 46.667h-18.667v-28c0-15.464-12.535-28-27.998-28s-28.002 12.536-28.002 28v28h-242.665v-28c0-15.464-12.536-28-28-28s-28 12.536-28 28v28h-18.667c-25.773 0-46.667-20.893-46.667-46.667v-317.331c0-25.775 20.893-46.669 46.667-46.669h196v-56h-196c-56.701 0-102.667 45.965-102.667 102.669v317.331c0 56.701 45.965 102.667 102.667 102.667h18.667v46.667c0 15.464 12.536 28 28 28zM325.332 473.336c0 15.462 12.536 27.998 28 27.998h317.331c15.467 0 28.002-12.535 28.002-27.998 0-15.467-12.535-28.002-28.002-28.002h-317.331c-15.464 0-28 12.535-28 28.002zM804.684 269.368c9.553 12.16 7.441 29.764-4.719 39.317s-29.764 7.441-39.317-4.719l-84.612-107.691-43.149 36.983c-11.742 10.065-29.414 8.704-39.479-3.038-10.065-11.738-8.704-29.414 3.038-39.479l65.331-56c5.798-4.966 13.367-7.356 20.966-6.605 7.595 0.747 14.558 4.561 19.273 10.564l102.669 130.667z" />
<glyph unicode="&#xe939;" glyph-name="pack-check" data-tags="pack-check" d="M330.455 713.481c5.247 7.433 13.777 11.853 22.875 11.853h317.344c9.097 0 17.626-4.42 22.874-11.853l98.334-139.306c12.228-17.322 18.79-38.004 18.79-59.206v-284.3l-0.009-1.357v57.075c-0.055-5.969-2.010-11.964-5.982-17.020l-102.669-130.667c-4.715-6.003-11.678-9.818-19.273-10.564-7.599-0.751-15.168 1.638-20.966 6.605l-65.331 56c-11.742 10.065-13.103 27.742-3.038 39.479 10.065 11.742 27.738 13.103 39.479 3.038l43.149-36.983 84.612 107.691c9.553 12.16 27.157 14.272 39.317 4.719 6.955-5.466 10.624-13.568 10.701-21.777v102.426h-55.991v112h-485.342v-270.665c0-25.775 20.893-46.669 46.667-46.669h196v-56h-196c-56.701 0-102.667 45.965-102.667 102.669v284.3c0 21.202 6.564 41.885 18.791 59.206l98.333 139.306zM367.839 669.334l-79.059-112h195.215v112h-116.156zM539.995 669.334v-112h195.23l-79.061 112h-116.169z" />
<glyph unicode="&#xe93a;" glyph-name="users-plus" data-tags="users-plus" d="M413.494 679.657c-44.027 0-79.717-35.691-79.717-79.717s35.691-79.717 79.717-79.717c44.028 0 79.716 35.69 79.716 79.717s-35.688 79.717-79.716 79.717zM281.434 599.939c0 72.935 59.126 132.060 132.060 132.060 72.937 0 132.059-59.125 132.059-132.060s-59.122-132.061-132.059-132.061c-72.935 0-132.060 59.126-132.060 132.061zM589.474 705.828c0 14.454 11.716 26.171 26.173 26.171 76.123 0 122.433-62.535 122.433-132.060s-46.309-132.061-122.433-132.061c-14.457 0-26.173 11.716-26.173 26.173 0 14.452 11.716 26.17 26.173 26.17 40.838 0 70.090 32.282 70.090 79.717s-29.252 79.717-70.090 79.717c-14.457 0-26.173 11.717-26.173 26.171zM301.951 273.797c-23.317-28.705-34.913-64.738-40.492-92.175-0.426-2.094 0.084-3.598 1.288-4.933 1.384-1.539 3.97-3.015 7.574-3.015h210.559c14.452 0 26.17-11.716 26.17-26.17s-11.716-26.17-26.17-26.17h-210.559c-35.614 0-68.296 30.679-60.155 70.716 6.379 31.37 20.289 76.75 51.157 114.751 31.731 39.063 80.444 69.024 152.172 69.024 26.979 0 53.18-2.166 76.893-11.414 13.468-5.252 20.128-20.427 14.876-33.89-5.252-13.468-20.427-20.128-33.89-14.876-14.54 5.667-32.917 7.836-57.878 7.836-54.942 0-89.090-22.042-111.544-49.686zM702.283 346.95c14.452 0 26.17-11.716 26.17-26.173v-60.463h60.466c14.452 0 26.173-11.716 26.173-26.173 0-14.452-11.721-26.17-26.173-26.17h-60.466v-60.466c0-14.452-11.716-26.17-26.17-26.17s-26.173 11.716-26.173 26.17v60.466h-60.463c-14.457 0-26.173 11.716-26.173 26.17 0 14.457 11.716 26.173 26.173 26.173h60.463v60.463c0 14.457 11.721 26.173 26.173 26.173z" />
<glyph unicode="&#xe93b;" glyph-name="star-outline" data-tags="star-outline" d="M511.999 725.333c12.197 0 22.986-7.89 26.682-19.51l59.129-185.823h184.856c11.962 0 22.605-7.598 26.484-18.913 3.883-11.316 0.149-23.845-9.292-31.188l-153.265-119.205 51.087-187.327c3.211-11.764-1.568-24.255-11.809-30.878s-23.591-5.854-33.003 1.9l-140.87 116.006-140.865-116.006c-9.415-7.754-22.764-8.523-33.005-1.9s-15.016 19.115-11.809 30.878l51.089 187.327-153.265 119.205c-9.443 7.343-13.176 19.873-9.294 31.188s14.523 18.913 26.484 18.913h184.86l59.128 185.823c3.696 11.62 14.485 19.51 26.678 19.51zM511.999 604.985l-38.651-121.475c-3.696-11.618-14.485-19.51-26.682-19.51h-123.725l103.583-80.565c8.923-6.94 12.798-18.562 9.822-29.467l-32.826-120.363 90.682 74.674c10.338 8.516 25.26 8.516 35.597 0l90.679-74.674-32.823 120.363c-2.975 10.905 0.9 22.527 9.822 29.467l103.581 80.565h-123.726c-12.193 0-22.982 7.892-26.678 19.51l-38.655 121.475z" />
<glyph unicode="&#xe93c;" glyph-name="checkmark-circle" data-tags="checkmark-circle" d="M213.333 426.667c0 164.949 133.718 298.667 298.667 298.667s298.667-133.718 298.667-298.667c0-164.949-133.717-298.667-298.667-298.667s-298.667 133.717-298.667 298.667zM512 669.334c-134.021 0-242.667-108.646-242.667-242.667s108.646-242.667 242.667-242.667c134.020 0 242.667 108.646 242.667 242.667s-108.646 242.667-242.667 242.667zM609.937 534.953c13.41-7.696 18.044-24.809 10.351-38.223l-85.632-149.231c-26.308-45.854-93.355-43.098-115.812 4.766l-16.192 34.509c-6.569 13.999-0.545 30.673 13.455 37.244 13.999 6.566 30.673 0.542 37.244-13.457l16.192-34.509c3.209-6.839 12.783-7.232 16.542-0.683l85.628 149.233c7.697 13.413 24.811 18.047 38.225 10.351z" />
<glyph unicode="&#xe93d;" glyph-name="dashboard" data-tags="dashboard" d="M316 669.334c-25.773 0-46.667-20.893-46.667-46.667v-28h485.333v28c0 25.774-20.894 46.667-46.665 46.667h-392.002zM754.667 538.667h-298.667v-354.667h252.002c25.771 0 46.665 20.894 46.665 46.665v308.002zM400 184v354.667h-130.667v-308.002c0-25.771 20.893-46.665 46.667-46.665h84zM213.333 622.667c0 56.701 45.965 102.667 102.667 102.667h392.002c56.7 0 102.665-45.966 102.665-102.667v-392.002c0-56.7-45.965-102.665-102.665-102.665h-392.002c-56.701 0-102.667 45.965-102.667 102.665v392.002z" />
<glyph unicode="&#xe93e;" glyph-name="employee" data-tags="employee" d="M267.407 595.030c0 48.334 42.205 87.637 94.116 87.637 51.916 0 94.144-39.308 94.144-87.637 0-48.352-42.223-87.663-94.144-87.663-51.916 0-94.116 39.306-94.116 87.663zM361.409 633.212c-22.571 0-40.965-17.14-40.965-38.183s18.394-38.183 40.965-38.183c22.601 0 41.021 17.143 41.021 38.183s-18.42 38.183-41.021 38.183zM826.018 264.248c15.074 0 27.315-11.405 27.315-25.446 0-14.059-12.237-25.468-27.315-25.468h-628.008c-15.082 0-27.344 11.413-27.344 25.468 0 14.037 12.267 25.446 27.344 25.446h480.641l90.385 192.465c1.071 2.287 0.887 4.531-0.495 6.537-1.446 2.022-3.524 3.076-5.995 3.076h-237.133c-2.863 0-5.431-1.553-6.562-3.951l-77.786-162.551-3.849-2.325h-99.205c-15.096 0-27.344 11.396-27.344 25.442 0 14.067 12.242 25.468 27.344 25.468h66.426l24.924 52.122c-19.945 16.892-45.286 26.18-71.349 26.18-59.136 0-107.311-45.372-107.311-101.094 0-13.653-11.771-24.755-26.291-24.755-14.547 0-26.348 11.102-26.348 24.755 0 83.038 71.722 150.575 159.95 150.575 33.545 0 65.939-10.027 93.66-28.992l17.199 35.883c9.894 20.766 32.090 34.184 56.542 34.184h237.133c20.988 0 40.405-9.83 51.87-26.273 11.473-16.461 13.188-36.975 4.595-54.827l-80.666-171.917h87.671z" />
<glyph unicode="&#xe93f;" glyph-name="file-text" data-tags="file-text" d="M356.571 669.334c-25.247 0-45.714-20.893-45.714-46.667v-392.002c0-25.771 20.467-46.665 45.714-46.665h310.859c25.246 0 45.713 20.894 45.713 46.665v270.669h-137.143c-15.147 0-27.43 12.536-27.43 28v140h-191.998zM603.43 639.069l80.064-81.735h-80.064v81.735zM256 622.667c0 56.701 45.027 102.667 100.571 102.667h228.572c7.275 0 14.251-2.95 19.396-8.201l155.426-158.667c5.146-5.251 8.034-12.373 8.034-19.799v-308.002c0-56.7-45.026-102.665-100.57-102.665h-310.859c-55.544 0-100.571 45.965-100.571 102.665v392.002zM402.286 417.332c0 15.467 12.28 28.002 27.427 28.002h164.574c15.147 0 27.426-12.535 27.426-28.002 0-15.462-12.279-27.998-27.426-27.998h-164.574c-15.147 0-27.427 12.535-27.427 27.998zM402.286 305.332c0 15.467 12.28 28.002 27.427 28.002h164.574c15.147 0 27.426-12.535 27.426-28.002 0-15.462-12.279-27.998-27.426-27.998h-164.574c-15.147 0-27.427 12.535-27.427 27.998z" />
<glyph unicode="&#xe940;" glyph-name="link" data-tags="link" d="M492.181 670.69c72.858 72.858 190.985 72.858 263.842 0s72.858-190.985 0-263.842l-46.711-46.707c-10.944-10.944-28.689-10.944-39.633 0s-10.944 28.689 0 39.633l46.711 46.711c50.965 50.965 50.965 133.602 0 184.57-50.97 50.968-133.606 50.968-184.572 0l-46.711-46.71c-10.944-10.945-28.689-10.945-39.633 0s-10.944 28.69 0 39.634l46.707 46.71zM615.893 530.562c10.944-10.945 10.944-28.69 0-39.634l-168.154-168.154c-10.944-10.944-28.689-10.944-39.634 0s-10.945 28.689 0 39.633l168.155 168.155c10.944 10.945 28.689 10.945 39.633 0zM354.321 493.193c10.945-10.944 10.945-28.689 0-39.633l-46.71-46.711c-50.968-50.965-50.968-133.602 0-184.572 50.968-50.965 133.605-50.965 184.57 0l46.711 46.711c10.944 10.944 28.689 10.944 39.633 0s10.944-28.689 0-39.633l-46.707-46.711c-72.858-72.858-190.985-72.858-263.842 0s-72.858 190.985 0 263.842l46.71 46.707c10.944 10.944 28.689 10.944 39.634 0z" />
<glyph unicode="&#xe941;" glyph-name="logout" data-tags="logout" d="M213.333 622.667c0 56.701 45.965 102.667 102.667 102.667h317.335c15.462 0 27.998-12.536 27.998-28s-12.535-28-27.998-28h-317.335c-25.773 0-46.667-20.893-46.667-46.667v-392.002c0-25.771 20.893-46.665 46.667-46.665h317.335c15.462 0 27.998-12.535 27.998-28.002 0-15.462-12.535-27.998-27.998-27.998h-317.335c-56.701 0-102.667 45.965-102.667 102.665v392.002zM631.484 567.053c10.522 11.332 28.237 11.988 39.569 1.466l130.667-121.333c5.705-5.299 8.947-12.732 8.947-20.518s-3.243-15.219-8.947-20.518l-130.667-121.331c-11.332-10.526-29.047-9.869-39.569 1.463-10.526 11.332-9.869 29.047 1.463 39.569l78.417 72.819h-246.033c-15.462 0-27.998 12.535-27.998 27.998s12.535 27.998 27.998 27.998h246.033l-78.417 72.817c-11.332 10.522-11.989 28.239-1.463 39.571z" />
<glyph unicode="&#xe942;" glyph-name="payments" data-tags="payments" d="M213.333 542.222c0 54.001 45.965 97.778 102.667 97.778h392.002c56.7 0 102.665-43.777 102.665-97.778v-231.11c0-54.003-45.965-97.779-102.665-97.779h-392.002c-56.701 0-102.667 43.776-102.667 97.779v231.11zM316 586.667c-25.773 0-46.667-19.898-46.667-44.445v-8.259c28.613 3.898 51.246 25.453 55.338 52.703h-8.672zM380.98 586.667c-4.532-56.733-52.077-102.016-111.646-106.33v-107.341c59.569-4.314 107.115-49.596 111.646-106.33h262.041c4.531 56.734 52.079 102.016 111.646 106.33v107.341c-59.567 4.314-107.115 49.597-111.646 106.33h-262.041zM699.328 586.667c4.092-27.25 26.726-48.805 55.339-52.703v8.259c0 24.547-20.894 44.445-46.665 44.445h-8.674zM754.667 319.369c-28.612-3.895-51.247-25.451-55.339-52.702h8.674c25.771 0 46.665 19.895 46.665 44.446v8.256zM324.672 266.667c-4.093 27.251-26.725 48.806-55.338 52.702v-8.256c0-24.546 20.893-44.446 46.667-44.446h8.672zM475.627 493.197c-11.575-15.919-19.627-39.36-19.627-66.53s8.051-50.611 19.627-66.53c11.648-16.026 24.964-22.357 36.373-22.357s24.725 6.332 36.373 22.357c11.575 15.919 19.627 39.36 19.627 66.53s-8.051 50.611-19.627 66.53c-11.648 16.026-24.964 22.359-36.373 22.359s-24.725-6.333-36.373-22.359zM429.581 523.556c18.756 25.799 47.437 45.333 82.419 45.333s63.663-19.534 82.419-45.333c18.829-25.904 29.581-60.242 29.581-96.889s-10.752-70.985-29.581-96.887c-18.756-25.801-47.437-45.333-82.419-45.333s-63.663 19.533-82.419 45.333c-18.829 25.903-29.581 60.241-29.581 96.887s10.752 70.985 29.581 96.889z" />
<glyph unicode="&#xe943;" glyph-name="event" data-tags="event" d="M390.667 740c0 15.464-12.536 28-28 28s-28-12.536-28-28v-46.667h-18.667c-56.701 0-102.667-45.965-102.667-102.667v-317.335c0-56.7 45.966-102.665 102.667-102.665h71.555v56h-71.555c-25.773 0-46.667 20.894-46.667 46.665v317.335c0 25.773 20.893 46.667 46.667 46.667h18.667v-28c0-15.464 12.536-28 28-28s28 12.536 28 28v28h242.669v-28c0-15.464 12.535-28 27.998-28s27.998 12.536 27.998 28v28h18.671c25.771 0 46.665-20.893 46.665-46.667v-164h56v164c0 56.701-45.965 102.667-102.665 102.667h-18.671v46.667c0 15.464-12.535 28-27.998 28s-27.998-12.536-27.998-28v-46.667h-242.669v46.667zM353.333 544c-15.464 0-28-12.536-28-28s12.536-28 28-28h317.335c15.462 0 27.998 12.535 27.998 28s-12.535 28-27.998 28h-317.335zM613.389 412.369c7.676 15.799 30.084 16.068 38.144 0.461l36.608-70.925c3.162-6.118 9.079-10.338 15.893-11.328l76.791-11.14c17.57-2.551 24.521-24.192 11.721-36.497l-56.269-54.067c-5.167-4.971-7.497-12.198-6.195-19.251l14.067-76.343c3.209-17.408-14.959-30.925-30.711-22.852l-71.71 36.745c-6.106 3.127-13.35 3.127-19.456 0l-71.71-36.745c-15.757-8.073-33.92 5.444-30.711 22.852l14.067 76.343c1.301 7.053-1.028 14.281-6.195 19.251l-56.115 53.922c-12.83 12.331-5.82 34.018 11.797 36.506l79.753 11.268c7.027 0.99 13.103 5.414 16.205 11.797l34.027 70.003z" />
<glyph unicode="&#xe944;" glyph-name="dots-vertical" data-tags="dots-vertical" d="M460.799 631.468c0 28.276 22.922 51.201 51.201 51.201s51.201-22.923 51.201-51.201c0-28.276-22.922-51.201-51.201-51.201s-51.201 22.923-51.201 51.201zM460.799 426.667c0 28.277 22.922 51.201 51.201 51.201s51.201-22.922 51.201-51.201c0-28.277-22.922-51.201-51.201-51.201s-51.201 22.922-51.201 51.201zM460.799 221.866c0 28.277 22.922 51.201 51.201 51.201s51.201-22.922 51.201-51.201c0-28.277-22.922-51.201-51.201-51.201s-51.201 22.922-51.201 51.201z" />
<glyph unicode="&#xe945;" glyph-name="tickets" data-tags="tickets" d="M213.333 618.667c0 35.346 29.251 64 65.333 64h466.669c36.079 0 65.331-28.654 65.331-64v-47.384c0-30.666-21.709-52.66-42.782-63.327-30.084-15.236-50.551-45.943-50.551-81.289s20.467-66.052 50.551-81.289c21.073-10.667 42.782-32.661 42.782-63.326v-47.386c0-35.345-29.252-64-65.331-64h-466.669c-36.083 0-65.333 28.655-65.333 64v47.386c0 30.665 21.711 52.659 42.78 63.326 30.087 15.236 50.553 45.943 50.553 81.289s-20.466 66.052-50.553 81.289c-21.069 10.667-42.78 32.661-42.78 63.327v47.384zM278.667 627.81c-5.155 0-9.333-4.093-9.333-9.143v-47.384c0-3.252 2.806-9.691 12.495-14.598 47.957-24.283 80.838-73.365 80.838-130.018s-32.881-105.737-80.838-130.018c-9.689-4.907-12.495-11.345-12.495-14.596v-47.386c0-5.047 4.179-9.143 9.333-9.143h466.669c5.154 0 9.331 4.096 9.331 9.143v47.386c0 3.251-2.807 9.69-12.497 14.596-47.953 24.282-80.836 73.365-80.836 130.018s32.883 105.735 80.836 130.018c9.69 4.906 12.497 11.346 12.497 14.598v47.384c0 5.050-4.177 9.143-9.331 9.143h-466.669z" />
<glyph unicode="&#xe946;" glyph-name="clearable" data-tags="clearable" d="M213.333 426.667c0 164.949 133.718 298.667 298.667 298.667s298.667-133.718 298.667-298.667c0-164.949-133.717-298.667-298.667-298.667s-298.667 133.717-298.667 298.667zM512 669.334c-134.021 0-242.667-108.646-242.667-242.667s108.646-242.667 242.667-242.667c134.020 0 242.667 108.646 242.667 242.667s-108.646 242.667-242.667 242.667zM408.201 530.466c10.935 10.935 28.663 10.935 39.599 0l64.201-64.2 64.201 64.2c10.935 10.935 28.663 10.935 39.599 0s10.935-28.663 0-39.599l-64.201-64.201 64.201-64.201c10.935-10.935 10.935-28.663 0-39.599s-28.663-10.935-39.599 0l-64.201 64.201-64.201-64.201c-10.935-10.935-28.664-10.935-39.599 0s-10.935 28.663 0 39.599l64.2 64.201-64.2 64.201c-10.935 10.935-10.935 28.664 0 39.599z" />
<glyph unicode="&#xe947;" glyph-name="phone" data-tags="phone" d="M213.336 648.121c0 42.643 34.569 77.212 77.212 77.212h105.455c9.362 0 18.104-4.679 23.297-12.468l77.334-116c7.403-11.105 5.939-25.893-3.499-35.331l-61.137-61.135c-1.284-1.284-1.877-2.607-2.078-3.558-0.179-0.849-0.073-1.438 0.183-1.975 9.754-20.625 29.312-54.908 62.554-86.601 33.152-31.612 66.876-51.785 87.526-62.451 0.772-0.397 1.6-0.542 2.641-0.35 1.126 0.209 2.56 0.853 3.895 2.185l60.151 60.151c9.438 9.438 24.222 10.901 35.328 3.499l116.002-77.333c7.787-5.193 12.467-13.935 12.467-23.3v-105.451c0-42.645-34.569-77.214-77.214-77.214-287.253 0-520.119 232.866-520.119 520.121zM290.548 669.333c-11.715 0-21.212-9.497-21.212-21.212 0-256.326 207.795-464.121 464.119-464.121 11.716 0 21.214 9.498 21.214 21.214v90.466l-84.433 56.29-43.917-43.917c-18.095-18.095-46.707-24.973-71.838-11.994-23.868 12.331-62.4 35.375-100.467 71.676-39.68 37.833-62.845 78.473-74.534 103.185-11.727 24.789-4.234 51.922 12.919 69.075l44.906 44.906-56.288 84.432h-90.47z" />
<glyph unicode="&#xe948;" glyph-name="search-close" data-tags="search-close" d="M474.667 669.336c-113.402 0-205.332-91.931-205.332-205.332s91.931-205.333 205.332-205.333c113.403 0 205.333 91.931 205.333 205.333s-91.931 205.332-205.333 205.332zM213.332 464.002c0 144.331 117.004 261.332 261.332 261.332s261.333-117.004 261.333-261.332c0-62.079-21.646-119.103-57.801-163.934l124.27-124.267c10.936-10.935 10.936-28.664 0-39.599-10.938-10.936-28.665-10.936-39.599 0l-124.268 124.27c-44.832-36.155-101.856-57.801-163.933-57.801-144.331 0-261.332 117.004-261.332 261.333zM393.906 537.411c4.123 4.123 10.808 4.123 14.931 0l66.437-66.437 66.437 66.437c4.123 4.123 10.808 4.123 14.931 0s4.123-10.808 0-14.931l-66.437-66.437 66.437-66.437c4.123-4.123 4.123-10.808 0-14.931s-10.808-4.123-14.931 0l-66.437 66.437-66.437-66.437c-4.123-4.123-10.808-4.123-14.931 0s-4.123 10.808 0 14.931l66.437 66.437-66.437 66.437c-4.123 4.123-4.123 10.808 0 14.931z" />
<glyph unicode="&#xe949;" glyph-name="checkmark-circle-full" data-tags="checkmark-circle-full" d="M511.999 725.334c-59.072 0-116.815-17.516-165.93-50.334s-87.396-79.463-110.001-134.037c-22.606-54.575-28.52-114.628-16.996-172.561 11.524-57.937 39.969-111.155 81.739-152.922 41.769-41.771 94.986-70.217 152.923-81.741 57.933-11.524 117.986-5.611 172.561 16.994 54.575 22.609 101.218 60.89 134.037 110.003 32.819 49.118 50.334 106.859 50.334 165.931 0 39.223-7.727 78.059-22.733 114.295-15.010 36.236-37.009 69.161-64.747 96.894-27.733 27.734-60.655 49.733-96.892 64.743s-75.072 22.735-114.295 22.735zM640.426 498.048l-136.491-179.2c-2.782-3.614-6.357-6.545-10.445-8.563-4.092-2.018-8.589-3.072-13.15-3.085-4.535-0.026-9.020 0.986-13.107 2.953s-7.676 4.838-10.487 8.397l-72.875 92.885c-2.412 3.098-4.19 6.643-5.233 10.428s-1.329 7.74-0.844 11.635c0.486 3.895 1.734 7.659 3.673 11.076 1.94 3.413 4.532 6.413 7.631 8.823 6.258 4.873 14.194 7.057 22.064 6.076 3.897-0.482 7.66-1.732 11.074-3.669 3.414-1.941 6.415-4.535 8.825-7.633l48.683-62.123 112.896 149.333c2.394 3.138 5.38 5.774 8.789 7.757 3.413 1.983 7.181 3.276 11.093 3.802 3.908 0.527 7.885 0.278 11.699-0.731s7.394-2.761 10.53-5.153c3.136-2.392 5.773-5.379 7.757-8.791s3.277-7.18 3.802-11.090c0.529-3.91 0.277-7.887-0.73-11.701-1.011-3.814-2.761-7.394-5.154-10.53v-0.896z" />
<glyph unicode="&#xe94a;" glyph-name="triangle-info" data-tags="triangle-info" d="M553.743 643.553c-17.173 34.354-66.108 34.362-83.294 0.015l-196.139-391.962c-15.531-31.036 6.991-67.597 41.643-67.597h392.098c34.645 0 57.165 36.544 41.651 67.58zM749.702 251.589v0zM420.476 668.671c37.812 75.566 145.46 75.544 183.246-0.033l195.959-391.962c34.133-68.279-15.411-148.676-91.631-148.676h-392.098c-76.235 0-125.784 80.427-91.615 148.71l196.138 391.961zM511.976 538.743c20.582 0 37.269-16.718 37.269-37.341v-74.679c0-20.621-16.687-37.342-37.269-37.342s-37.265 16.721-37.265 37.342v74.679c0 20.624 16.683 37.341 37.265 37.341zM511.976 240.022c20.582 0 37.269 16.717 37.269 37.342 0 20.621-16.687 37.338-37.269 37.338s-37.265-16.717-37.265-37.338c0-20.625 16.683-37.342 37.265-37.342z" />
<glyph unicode="&#xe94b;" glyph-name="globe-watch" data-tags="globe-watch" d="M173.176 445.49c0-163.912 130.941-297.238 293.926-301.089-41.713 43.508-67.51 102.397-68.034 167.307-9.231 29.96-15.917 65.336-18.081 105.548h40.988c9.603 20.537 21.975 39.521 36.636 56.47h-77.622c3.624 67.352 19.938 121.151 39.638 158.626 11.229 21.36 23.181 36.7 33.808 46.313 11.208 10.132 18.191 11.533 19.919 11.533s8.711-1.402 19.919-11.533c10.628-9.611 22.577-24.953 33.807-46.313 12.353-23.496 23.376-53.408 30.769-89.054 17.453 6.458 35.841 10.982 54.908 13.313-8.403 39.719-20.965 74.011-35.693 102.020-2.056 3.914-4.167 7.723-6.322 11.421 53.347-23.168 96.824-64.788 122.376-116.805 25.076-5.244 48.743-14.329 70.355-26.607-35.425 126.92-151.898 220.028-290.12 220.028-166.335 0-301.177-134.842-301.177-301.177zM324.444 473.726h-93.185c10.142 88.27 67.252 162.253 145.707 196.325-2.156-3.698-4.266-7.507-6.323-11.421-24.169-45.97-42.514-108.868-46.199-184.904zM370.642 232.351c2.059-3.915 4.167-7.725 6.323-11.423-78.456 34.074-135.565 108.054-145.707 196.326h93.185c3.685-76.036 22.030-138.933 46.199-184.903zM643.765 481.963c-92.913 0-168.237-75.323-168.237-168.237s75.323-168.237 168.237-168.237c92.913 0 168.237 75.323 168.237 168.237s-75.323 168.237-168.237 168.237zM436.707 313.725c0 114.356 92.702 207.059 207.059 207.059s207.059-92.702 207.059-207.059c0-114.356-92.702-207.059-207.059-207.059s-207.059 92.702-207.059 207.059zM643.765 436.665c10.721 0 19.411-8.689 19.411-19.411v-95.488l46.080-46.080c7.583-7.583 7.583-19.869 0-27.453s-19.869-7.583-27.453 0l-57.449 57.449v111.571c0 10.721 8.689 19.411 19.411 19.411z" />
<glyph unicode="&#xe94c;" glyph-name="password" data-tags="password" d="M332.8 426.667c-14.138 0-25.6-12.156-25.6-27.153v-190.059c0-14.997 11.462-27.153 25.6-27.153h358.4c14.14 0 25.6 12.156 25.6 27.153v190.059c0 14.997-11.46 27.153-25.6 27.153h-358.4zM256 399.514c0 44.988 34.385 81.455 76.8 81.455h358.4c42.415 0 76.8-36.467 76.8-81.455v-190.059c0-44.988-34.385-81.455-76.8-81.455h-358.4c-42.415 0-76.8 36.467-76.8 81.455v190.059zM511.996 671.031c-27.157 0-53.205-11.442-72.41-31.81-19.202-20.368-29.99-47.992-29.99-76.796v-108.605c0-14.997-11.462-27.153-25.6-27.153s-25.6 12.156-25.6 27.153v108.605c0 43.206 16.183 84.643 44.989 115.194 28.803 30.551 67.873 47.715 108.611 47.715s79.808-17.164 108.612-47.715c28.804-30.551 44.988-71.988 44.988-115.194v-108.605c0-14.997-11.46-27.153-25.6-27.153s-25.6 12.156-25.6 27.153v108.605c0 28.804-10.79 56.428-29.99 76.796-19.204 20.367-45.252 31.81-72.41 31.81z" />
<glyph unicode="&#xe94d;" glyph-name="circle-empty" data-tags="circle-empty" d="M213.333 426.667c0 164.949 133.718 298.667 298.667 298.667s298.667-133.718 298.667-298.667c0-164.949-133.717-298.667-298.667-298.667s-298.667 133.717-298.667 298.667zM512 669.334c-134.021 0-242.667-108.646-242.667-242.667s108.646-242.667 242.667-242.667c134.020 0 242.667 108.646 242.667 242.667s-108.646 242.667-242.667 242.667z" />
<glyph unicode="&#xe94e;" glyph-name="no-show-1" data-tags="no-show-1" d="M539.126 669.335c-51.546 0-93.329-41.787-93.329-93.333s41.783-93.333 93.329-93.333c51.546 0 93.329 41.787 93.329 93.333s-41.783 93.333-93.329 93.333zM389.798 576.001c0 82.475 66.857 149.333 149.328 149.333s149.329-66.859 149.329-149.333c0-82.475-66.859-149.333-149.329-149.333s-149.328 66.859-149.328 149.333zM548.457 324.003c-139.845 0-200.747-59.136-228.238-105.562-5.156-8.708-3.845-15.603 0.546-21.414 5.155-6.818 15.77-13.026 29.817-13.026h197.875c15.467 0 28.002-12.535 28.002-28.002 0-15.462-12.535-27.998-28.002-27.998h-197.875c-29.986 0-57.815 13.201-74.489 35.26-17.437 23.070-21.338 54.528-4.058 83.712 37.587 63.479 116.821 133.026 276.422 133.026 15.467 0 28.002-12.535 28.002-27.998s-12.535-27.998-28.002-27.998zM688.459 389.335c0 20.617 16.717 37.333 37.333 37.333 20.621 0 37.333-16.717 37.333-37.333v-112c0-20.617-16.713-37.333-37.333-37.333-20.617 0-37.333 16.717-37.333 37.333v112zM725.792 202.668c-20.617 0-37.333-16.717-37.333-37.333s16.717-37.333 37.333-37.333c20.621 0 37.333 16.717 37.333 37.333s-16.713 37.333-37.333 37.333z" />
<glyph unicode="&#xe94f;" glyph-name="no-show-2" data-tags="no-show-2" d="M496.461 669.335c-51.546 0-93.329-41.787-93.329-93.333s41.783-93.333 93.329-93.333c51.546 0 93.329 41.787 93.329 93.333s-41.783 93.333-93.329 93.333zM347.133 576.001c0 82.475 66.857 149.333 149.328 149.333s149.329-66.859 149.329-149.333c0-82.475-66.859-149.333-149.329-149.333s-149.328 66.859-149.328 149.333zM505.792 324.003c-139.845 0-200.747-59.136-228.238-105.562-5.156-8.708-3.845-15.603 0.546-21.414 5.155-6.818 15.77-13.026 29.817-13.026h197.875c15.467 0 28.002-12.535 28.002-28.002 0-15.462-12.535-27.998-28.002-27.998h-197.875c-29.986 0-57.815 13.201-74.489 35.26-17.437 23.070-21.338 54.528-4.058 83.712 37.587 63.479 116.821 133.026 276.422 133.026 15.467 0 28.002-12.535 28.002-27.998s-12.535-27.998-28.002-27.998zM603.127 389.335c0 20.617 16.713 37.333 37.333 37.333 20.617 0 37.329-16.717 37.329-37.333v-112c0-20.617-16.713-37.333-37.329-37.333-20.621 0-37.333 16.717-37.333 37.333v112zM640.461 202.668c-20.621 0-37.333-16.717-37.333-37.333s16.713-37.333 37.333-37.333c20.617 0 37.329 16.717 37.329 37.333s-16.713 37.333-37.329 37.333zM731.127 389.335c0 20.617 16.713 37.333 37.333 37.333 20.617 0 37.329-16.717 37.329-37.333v-112c0-20.617-16.713-37.333-37.329-37.333-20.621 0-37.333 16.717-37.333 37.333v112zM768.461 202.668c-20.621 0-37.333-16.717-37.333-37.333s16.713-37.333 37.333-37.333c20.617 0 37.329 16.717 37.329 37.333s-16.713 37.333-37.329 37.333z" />
<glyph unicode="&#xe950;" glyph-name="no-show-3" data-tags="no-show-3" d="M503.81 669.413c-51.473 0-93.199-41.727-93.199-93.201s41.726-93.2 93.199-93.2c51.473 0 93.201 41.727 93.201 93.2s-41.728 93.201-93.201 93.201zM354.69 576.213c0 82.357 66.763 149.121 149.119 149.121s149.12-66.764 149.12-149.121c0-82.359-66.765-149.119-149.12-149.119s-149.119 66.761-149.119 149.119zM513.128 324.57c-139.65 0-200.467-59.046-227.92-105.408-5.148-8.695-3.839-15.582 0.546-21.38 5.147-6.81 15.748-13.009 29.775-13.009h197.599c15.445 0 27.959-12.518 27.959-27.964 0-15.441-12.514-27.959-27.959-27.959h-197.599c-29.943 0-57.734 13.184-74.385 35.213-17.413 23.036-21.308 54.451-4.052 83.593 37.535 63.386 116.657 132.838 276.036 132.838 15.445 0 27.959-12.518 27.959-27.959 0-15.445-12.514-27.964-27.959-27.964zM619.428 306.629c10.918 10.918 28.621 10.918 39.539 0l45.679-45.679 45.675 45.679c10.918 10.918 28.625 10.918 39.543 0s10.918-28.625 0-39.543l-45.679-45.675 45.679-45.679c10.918-10.918 10.918-28.621 0-39.543-10.918-10.918-28.625-10.918-39.543 0l-45.675 45.679-45.679-45.679c-10.918-10.918-28.621-10.918-39.539 0-10.918 10.923-10.918 28.625 0 39.543l45.675 45.679-45.675 45.675c-10.918 10.918-10.918 28.625 0 39.543z" />
<glyph unicode="&#xe951;" glyph-name="refund" data-tags="refund" d="M511.999 725.333c-82.504 0-156.711-33.685-210.777-87.889l-46.667 46.667-16.333-157.888 149.333 24.888-51.333 51.333c44.989 45.118 106.864 73.112 175.777 73.112 137.749 0 248.89-111.14 248.89-248.889s-111.141-248.89-248.89-248.89h-24.89v-49.777h49.78v1.557c152.962 12.787 273.777 140.907 273.777 297.11 0 164.651-134.015 298.667-298.667 298.667zM487.109 575.999v-29.556c-28.821-10.461-49.777-38.021-49.777-70.001 0-20.746 11.458-38.36 24.11-49 12.656-10.636 27.197-17.050 39.667-23.333 12.473-6.279 23.527-12.115 29.557-17.11s6.223-6.309 6.223-10.11c0-13.055-11.234-24.89-24.89-24.89-14.063 0-24.89 10.827-24.89 24.89h-49.777c0-32.159 21.011-59.591 49.777-70v-29.557h49.78v29.557c28.851 10.483 49.777 38.106 49.777 70 0 20.675-12.253 37.751-24.89 48.22-12.637 10.472-26.469 17.080-38.886 23.333s-22.766 12.059-28.78 17.114c-6.011 5.051-7 6.698-7 10.886 0 13.395 11.099 24.89 24.89 24.89 14.063 0 24.89-10.827 24.89-24.89h49.777c0 32.157-21.011 59.591-49.777 70.001v29.556h-49.78zM238.222 451.556c-13.745 0-24.889-11.144-24.889-24.89s11.143-24.89 24.889-24.89c13.745 0 24.888 11.144 24.888 24.89s-11.143 24.89-24.888 24.89zM259.222 346.556c-3.233 0.022-6.158-0.243-9.333-1.557-12.7-5.26-19.26-19.966-14-32.667s19.967-18.484 32.667-13.223c12.699 5.26 18.483 19.97 13.223 32.667-3.945 9.527-12.857 14.706-22.555 14.78zM318.332 257.889c-6.369 0-13.028-2.143-17.889-7-9.72-9.722-9.72-26.059 0-35.78 9.72-9.718 26.059-9.718 35.777 0 9.72 9.722 9.72 26.059 0 35.78-4.86 4.857-11.519 7-17.889 7zM406.999 198.776c-9.698-0.071-18.611-6.029-22.556-15.553-5.26-12.701 0.524-27.406 13.223-32.667s27.406 1.299 32.667 14c5.26 12.697-0.523 26.626-13.223 31.886-3.174 1.318-6.878 2.359-10.111 2.333z" />
<glyph unicode="&#xe952;" glyph-name="prepaid" data-tags="prepaid" d="M676.897 604.71c26.137-24.219 46.93-54.119 60.417-87.74l-0.045-0.018c2.509-6.28 4.779-12.727 6.799-19.335 2.020-6.604 3.741-13.22 5.174-19.828 3.536-16.488 5.428-33.583 5.428-51.121 0-33.91-6.955-66.198-19.518-95.512l-0.052 0.022c-5.372-12.537-11.79-24.608-19.178-36.073-11.047-17.089-24.163-32.708-39.025-46.482-21.59-20.004-46.82-36.129-74.594-47.273l-0.019 0.045c-6.28-2.505-12.727-4.779-19.335-6.799-6.604-2.020-13.22-3.741-19.828-5.174-16.483-3.536-33.583-5.428-51.121-5.428-33.91 0-66.198 6.955-95.511 19.518l0.021 0.052c-12.536 5.372-24.607 11.794-36.072 19.178-4.965 3.211-9.819 6.578-14.527 10.132l-28.728-48.403c35.392-25.59 76.613-43.613 121.293-51.697 16.376-2.998 33.089-4.644 49.98-4.842v0.082c1.18-0.015 2.36-0.022 3.543-0.022 63.147 0 121.714 19.597 169.957 53.041l0.030-0.045c13.897 9.606 26.837 20.313 38.739 31.954l-0.045 0.045c43.413 42.401 73.952 97.924 85.212 160.157 2.998 16.376 4.648 33.085 4.842 49.98h-0.082c0.015 1.18 0.022 2.36 0.022 3.543 0 63.147-19.597 121.714-53.037 169.957l0.045 0.031c-9.61 13.895-20.313 26.836-31.954 38.736l-0.045-0.044c-4.148 4.247-8.423 8.369-12.817 12.364-40.512 36.838-91.196 62.691-147.344 72.85-16.376 2.996-33.085 4.645-49.98 4.841v-0.079c-1.18 0.014-2.36 0.021-3.543 0.021v-56.002c33.91 0 66.198-6.956 95.512-19.519l-0.022-0.050c12.537-5.374 24.608-11.793 36.073-19.179 11.861-7.667 23.020-16.321 33.335-25.881zM449.008 718.64l11.872-54.729c-6.608-1.434-13.225-3.157-19.833-5.175-6.606-2.020-13.054-4.292-19.333-6.799l-20.761 52.011c7.721 3.082 15.631 5.868 23.724 8.342s16.209 4.587 24.332 6.35zM342.012 672.346l31.852-46.061c-11.267-7.793-21.767-16.476-31.428-25.927l-39.16 40.032c11.9 11.642 24.84 22.346 38.736 31.955zM260.999 588.561l47.076-30.331c-7.387-11.465-13.805-23.536-19.179-36.072l-51.47 22.067c6.605 15.409 14.494 30.242 23.574 44.336zM218.097 480.193l55.087-10.080c-2.432-13.296-3.761-26.854-3.92-40.553l-55.998 0.65c0.196 16.895 1.835 33.609 4.831 49.984zM220.026 363.675c1.761-8.124 3.875-16.24 6.35-24.334 2.474-8.090 5.26-16.001 8.342-23.722l52.011 20.761c-2.507 6.28-4.779 12.727-6.799 19.335-2.020 6.604-3.742 13.22-5.175 19.833l-54.729-11.872zM266.32 256.678l46.061 31.853c7.793-11.267 16.476-21.767 25.927-31.429l-40.032-39.16c-11.642 11.898-22.346 24.838-31.955 38.735zM620.288 496.731c7.698 13.415 3.061 30.527-10.349 38.223-13.414 7.696-30.529 3.062-38.222-10.351l-85.63-149.236c-0.47-0.821-1.030-1.531-1.661-2.132-4.394-4.222-12.078-3.17-14.885 2.811l-16.193 34.511c-6.571 14-23.244 20.022-37.244 13.455-1.75-0.821-3.375-1.799-4.866-2.912-10.441-7.784-14.335-22.083-8.589-34.332l16.194-34.511c2.808-5.981 6.31-11.26 10.345-15.826 28.237-31.965 82.447-29.062 105.472 11.062l85.63 149.237z" />
<glyph unicode="&#xe953;" glyph-name="gender" data-tags="gender" d="M896.001 582.702v-125.878c0-2.483-0.986-4.864-2.743-6.622s-4.139-2.743-6.622-2.743h-38.4c-2.483 0-4.868 0.986-6.622 2.743-1.758 1.758-2.743 4.139-2.743 6.622v37.653l-38.025-38.029c27.119-36.002 41.783-79.859 41.771-124.937 0-6.37-0.375-12.74-0.751-18.923 0.32-1.156 0.448-2.359 0.375-3.558-3.874-39.044-18.756-76.19-42.91-107.11-24.158-30.925-56.602-54.349-93.551-67.554-36.949-13.21-76.89-15.65-115.17-7.049-38.285 8.606-73.34 27.904-101.086 55.65-34.607 34.812-55.834 80.708-59.942 129.621-0.188 2.061-0.375 4.122-0.375 6.182 21.53 9.98 41.374 23.249 58.82 39.339-1.664-8.768-2.479-17.677-2.436-26.598-0.026-24.687 6.042-48.998 17.664-70.775 11.618-21.781 28.433-40.354 48.947-54.080 20.518-13.726 44.105-22.178 68.672-24.606 24.563-2.428 49.348 1.242 72.154 10.684 22.81 9.442 42.935 24.367 58.594 43.452 15.659 19.081 26.368 41.732 31.177 65.946s3.567 49.237-3.61 72.853c-7.177 23.62-20.070 45.103-37.538 62.545-10.534 10.385-22.447 19.273-35.401 26.415h-0.188c-12.89 6.886-26.705 11.87-41.024 14.797-9.69 1.882-19.537 2.82-29.406 2.807-29.687-0.094-58.688-8.956-83.358-25.472-8.171-5.385-15.77-11.601-22.665-18.547-3.439-3.375-6.69-6.942-9.741-10.675-5.116-6.281-9.69-12.988-13.675-20.045-0.375-0.188-0.559-0.371-0.375-0.559-11.849-17.033-26.253-32.132-42.705-44.77-10.505-8.081-21.658-15.287-33.344-21.542-0.188-0.188-0.375-0.188-0.563-0.375-0.713-0.388-1.468-0.704-2.244-0.934-19.655-9.86-40.788-16.439-62.566-19.482-0.22-0.149-0.485-0.213-0.749-0.188v-42.897h41.584c2.484 0 4.866-0.986 6.623-2.743 1.757-1.754 2.743-4.139 2.743-6.622v-38.4c0-2.483-0.986-4.864-2.743-6.622s-4.139-2.743-6.623-2.743h-41.584v-42.146c-0.039-2.47-1.038-4.83-2.786-6.579s-4.108-2.748-6.58-2.786h-38.4c-2.484 0-4.866 0.986-6.623 2.743s-2.743 4.139-2.743 6.622v42.146h-41.397c-2.484 0-4.866 0.986-6.623 2.743s-2.743 4.139-2.743 6.622v38.4c0 2.483 0.986 4.868 2.743 6.622 1.757 1.758 4.139 2.743 6.623 2.743h41.397v42.897c-49.586 6.686-95.046 31.185-127.894 68.928s-50.84 86.148-50.619 136.184c0.090 42.942 13.436 84.809 38.212 119.883 19.101 27.018 44.426 49.038 73.836 64.199s62.037 23.017 95.124 22.903c10.536-0.029 21.055-0.843 31.469-2.435 31.29-4.64 61.082-16.456 87.044-34.524 25.967-18.068 47.398-41.897 62.622-69.625v-0.187c13.636-24.618 22.050-51.782 24.725-79.797v-0.937c0.188-2.248 0.563-4.496 0.563-6.743-8.636-3.858-16.964-8.367-24.913-13.487-12.207-7.446-23.629-16.105-34.091-25.85 4.25 23.782 2.684 48.237-4.557 71.284s-19.947 44.001-37.035 61.078c-17.089 17.076-38.052 29.768-61.103 36.994s-47.509 8.771-71.287 4.505c-23.778-4.266-46.172-14.218-65.274-29.007s-34.345-33.977-44.431-55.929c-10.086-21.952-14.714-46.016-13.492-70.143s8.259-47.599 20.511-68.421c19.509-32.721 50.595-56.922 87.102-67.81 5.425-1.536 10.928-2.786 16.484-3.746 26.278-4.595 53.307-2.069 78.278 7.322 24.97 9.387 46.967 25.293 63.709 46.063 0.188 0.188 0.188 0.188 0.188 0.375 1.873 2.249 3.746 4.685 5.431 7.121 0.188 0.183 0.188 0.371 0.563 0.559 0.393 0.806 5.769 8.486 6.178 9.741 0 0 0.115 0.132 0.188 0.188 14.135 20.864 31.974 38.959 52.638 53.385 4.937 3.524 10.065 6.775 15.36 9.741 11.354 6.783 23.415 12.31 35.964 16.485 32.119 11.017 66.449 13.994 99.985 8.671s65.259-18.784 92.39-39.206l38.025 38.215h-37.649c-2.487 0-4.868 0.987-6.626 2.743-1.754 1.757-2.743 4.139-2.743 6.623v38.4c0 2.484 0.99 4.866 2.743 6.623 1.758 1.756 4.139 2.743 6.626 2.743h125.875c2.483 0 4.864-0.987 6.622-2.743s2.743-4.139 2.743-6.623z" />
<glyph unicode="&#xe954;" glyph-name="duplicate" data-tags="duplicate" d="M394.667 309.333v-117.333c0-31.117 12.362-60.962 34.368-82.965 22.003-22.007 51.849-34.368 82.965-34.368h234.667c31.117 0 60.962 12.361 82.965 34.368 22.007 22.003 34.368 51.849 34.368 82.965v234.667c0 31.117-12.361 60.962-34.368 82.965-22.003 22.006-51.849 34.368-82.965 34.368h-117.333v130.24c-0.102 27.664-11.14 54.165-30.699 73.727-19.563 19.561-46.063 30.597-73.728 30.7h-260.48c-27.664-0.103-54.165-11.138-73.727-30.7s-30.597-46.063-30.7-73.727v-260.48c0.103-27.665 11.138-54.165 30.7-73.728 19.562-19.558 46.063-30.596 73.727-30.699h130.24zM394.667 387.553h-130.24c-6.95 0-13.615 2.761-18.529 7.676s-7.675 11.58-7.675 18.53v260.48c0 6.95 2.761 13.615 7.675 18.529s11.579 7.675 18.529 7.675h260.48c6.95 0 13.615-2.761 18.53-7.675s7.676-11.579 7.676-18.529v-130.24h-39.113c-31.117 0-60.962-12.362-82.965-34.368-22.006-22.003-34.368-51.849-34.368-82.965v-39.113zM484.343 454.323c7.334 7.334 17.284 11.456 27.657 11.456h234.667c10.372 0 20.322-4.122 27.657-11.456s11.456-17.284 11.456-27.657v-234.667c0-10.372-4.122-20.322-11.456-27.657s-17.284-11.456-27.657-11.456h-234.667c-10.372 0-20.322 4.122-27.657 11.456s-11.456 17.284-11.456 27.657v234.667c0 10.372 4.122 20.322 11.456 27.657z" />
<glyph unicode="&#xe955;" glyph-name="list-bulleted" data-tags="list-bulleted" d="M192 554.667c53.019 0 96 42.981 96 96s-42.981 96-96 96c-53.019 0-96-42.981-96-96s42.981-96 96-96zM192 106.667c53.019 0 96 42.982 96 96s-42.981 96-96 96c-53.019 0-96-42.982-96-96s42.981-96 96-96zM480 234.667h448v-64h-448v64zM480 682.667h448v-64h-448v64z" />
<glyph unicode="&#xe956;" glyph-name="list-numbered" data-tags="list-numbered" d="M480 234.667h448v-64h-448v64zM480 682.667h448v-64h-448v64zM224 554.667v256h-64v-32h-64v-64h64v-160h-64v-64h192v64h-64zM288 42.667h-192v128c0 16.973 6.743 33.254 18.745 45.257s28.281 18.743 45.255 18.743h64v64h-128v64h128c16.974 0 33.253-6.741 45.255-18.743s18.745-28.284 18.745-45.257v-64c0-16.973-6.743-33.254-18.745-45.257s-28.281-18.743-45.255-18.743h-64v-64h128v-64z" />
<glyph unicode="&#xe957;" glyph-name="paragraph" data-tags="paragraph" d="M782.66 636.122h-126.545v-281.453h-31.637c-40.179 0-74.18 7.543-101.999 22.635-27.635 15.27-48.636 36.092-62.997 62.455-14.182 26.543-21.274 56.726-21.274 90.544 0 33.455 7.091 63.364 21.274 89.727 14.362 26.545 35.362 47.455 62.997 62.728 27.819 15.454 61.82 23.182 101.999 23.182h158.182v-69.818zM723.754 147.395v558.545h76.087v-558.545h-76.087zM224.159 212.022l181.019 181.022-181.019 181.018v-362.039z" />
<glyph unicode="&#xe958;" glyph-name="paragraph-l" data-tags="paragraph-l" d="M192 746.667h640v-64h-640v64zM448 554.667h384v-64h-384v64zM448 362.667h384v-64h-384v64zM192 170.667h640v-64h-640v64zM373.020 256.627l-181.019 181.022 181.019 181.018v-362.039z" />
<glyph unicode="&#xe959;" glyph-name="paragraph-r" data-tags="paragraph-r" d="M192 746.667h640v-64h-640v64zM448 554.667h384v-64h-384v64zM448 362.667h384v-64h-384v64zM192 170.667h640v-64h-640v64zM192.002 256.627l181.019 181.022-181.019 181.018v-362.039z" />
<glyph unicode="&#xe95a;" glyph-name="text-align-center" data-tags="text-align-center" d="M192 746.667h640v-64h-640v64zM320 554.667h384v-64h-384v64zM192 362.667h640v-64h-640v64zM320 170.667h384v-64h-384v64z" />
<glyph unicode="&#xe95b;" glyph-name="text-align-justify" data-tags="text-align-justify" d="M192 746.667h640v-64h-640v64zM192 554.667h640v-64h-640v64zM192 362.667h640v-64h-640v64zM192 170.667h640v-64h-640v64z" />
<glyph unicode="&#xe95c;" glyph-name="text-align-left" data-tags="text-align-left" d="M384 746.667h448v-64h-448v64zM384 554.667h320v-64h-320v64zM384 362.667h448v-64h-448v64zM384 170.667h320v-64h-320v64zM192 810.667h64v-768h-64v768z" />
<glyph unicode="&#xe95d;" glyph-name="text-align-right" data-tags="text-align-right" d="M192 746.667h448v-64h-448v64zM320 554.667h320v-64h-320v64zM192 362.667h448v-64h-448v64zM320 170.667h320v-64h-320v64zM768 810.667h64v-768h-64v768z" />
<glyph unicode="&#xe95e;" glyph-name="text-bold" data-tags="text-bold" d="M576.464 138.667h-296v576h272c32.068-0.002 63.467-9.182 90.487-26.457 27.017-17.274 48.529-41.922 61.986-71.029 13.461-29.108 18.308-61.46 13.973-93.234-4.339-31.773-17.677-61.644-38.447-86.080 27.127-21.696 46.861-51.264 56.491-84.638 9.626-33.374 8.674-68.915-2.731-101.722-11.405-32.811-32.7-61.278-60.954-81.489-28.25-20.207-62.071-31.159-96.806-31.351zM376.464 234.667h199.36c9.455 0 18.816 1.86 27.554 5.483 8.734 3.618 16.67 8.922 23.356 15.607s11.989 14.622 15.607 23.356c3.622 8.738 5.483 18.099 5.483 27.554s-1.86 18.816-5.483 27.554c-3.618 8.734-8.922 16.67-15.607 23.356s-14.622 11.989-23.356 15.607c-8.738 3.622-18.099 5.483-27.554 5.483h-199.36v-144zM376.464 474.667h176c9.455 0 18.816 1.86 27.554 5.483 8.734 3.618 16.67 8.922 23.356 15.607s11.989 14.622 15.607 23.357c3.622 8.736 5.483 18.098 5.483 27.553s-1.86 18.818-5.483 27.553c-3.618 8.736-8.922 16.672-15.607 23.358s-14.622 11.989-23.356 15.608c-8.738 3.618-18.099 5.481-27.554 5.481h-176v-144z" />
<glyph unicode="&#xe95f;" glyph-name="text-color" data-tags="text-color" d="M704 266.667h64l-224 544h-64l-224-544h64l51.52 128h279.68l52.8-128zM397.76 458.667l110.080 267.84h8.32l109.12-267.84h-227.52zM192 170.667h640v-128h-640v128z" />
<glyph unicode="&#xe961;" glyph-name="text-italic" data-tags="text-italic" d="M800 650.667v64h-416v-64h164.48l-139.84-448h-184.64v-64h416v64h-164.48l139.84 448h184.64z" />
<glyph unicode="&#xe962;" glyph-name="text-link" data-tags="text-link" d="M936.242 738.279c-17.839 17.9-39.036 32.102-62.37 41.792-23.339 9.691-48.363 14.679-73.63 14.679-25.271 0-50.291-4.988-73.63-14.679s-44.535-23.893-62.37-41.792l45.44-45.44c11.913 11.913 26.057 21.364 41.621 27.811s32.247 9.766 49.097 9.766c16.849 0 33.532-3.318 49.097-9.766 15.569-6.447 29.713-15.898 41.626-27.811s21.363-26.057 27.81-41.623c6.447-15.566 9.766-32.249 9.766-49.097s-3.319-33.531-9.766-49.097c-6.447-15.566-15.898-29.71-27.81-41.622l-256-256c-24.017-24.060-56.61-37.594-90.607-37.623s-66.615 13.444-90.675 37.461c-24.060 24.021-37.593 56.61-37.623 90.607s13.448 66.615 37.465 90.675l45.12 45.44-45.12 45.44-45.441-45.44c-17.9-17.839-32.102-39.031-41.792-62.37s-14.679-48.358-14.679-73.63c0-25.271 4.988-50.291 14.679-73.63s23.893-44.531 41.792-62.37c36.208-35.746 85.121-55.654 136.001-55.36 25.365-0.107 50.5 4.817 73.954 14.485s44.757 23.885 62.686 41.835l256 256c35.87 36.083 55.949 84.932 55.829 135.812s-20.429 99.632-56.469 135.547zM134.321 160.359c-11.949 11.891-21.431 26.031-27.901 41.6s-9.801 32.26-9.801 49.118c0 16.862 3.331 33.553 9.801 49.122s15.951 29.705 27.901 41.6l256 256c11.893 11.949 26.031 21.431 41.601 27.901 15.565 6.47 32.26 9.801 49.118 9.801 16.862 0 33.553-3.331 49.122-9.801s29.705-15.951 41.6-27.901c11.874-11.987 21.218-26.236 27.486-41.901s9.323-32.428 8.994-49.298c0.098-16.922-3.162-33.694-9.587-49.348-6.43-15.654-15.893-29.879-27.853-41.852l-67.84-68.8 45.44-45.44 67.84 67.84c36.109 36.113 56.397 85.090 56.397 136.158 0 51.072-20.288 100.050-56.397 136.162-36.113 36.112-85.090 56.399-136.162 56.399-51.068 0-100.047-20.288-136.159-56.399l-256-256c-17.948-17.843-32.191-39.057-41.91-62.426s-14.723-48.427-14.723-73.737c0-25.306 5.003-50.364 14.723-73.732s23.962-44.582 41.91-62.426c36.442-35.473 85.469-55.036 136.32-54.4 51.299-0.051 100.535 20.198 136.96 56.32l-45.44 45.44c-11.894-11.951-26.031-21.431-41.599-27.9-15.568-6.473-32.262-9.801-49.121-9.801s-33.553 3.328-49.121 9.801c-15.568 6.468-29.705 15.949-41.599 27.9z" />
<glyph unicode="&#xe963;" glyph-name="text-quotes" data-tags="text-quotes" d="M384 442.667h-188.48c5.947 39.603 20.089 77.534 41.523 111.366s49.687 62.819 82.957 85.114l57.28 38.4-35.2 53.12-57.28-38.4c-48.215-32.131-87.753-75.666-115.106-126.743s-41.674-108.116-41.694-166.057v-212.8c0-16.973 6.743-33.254 18.745-45.257s28.281-18.743 45.255-18.743h192c16.974 0 33.253 6.741 45.257 18.743 12.002 12.002 18.743 28.284 18.743 45.257v192c0 16.973-6.741 33.254-18.743 45.257-12.004 12.002-28.283 18.743-45.257 18.743zM832 442.667h-188.48c5.948 39.603 20.087 77.534 41.523 111.366 21.431 33.831 49.685 62.819 82.957 85.114l57.28 38.4-34.88 53.12-57.6-38.4c-48.213-32.131-87.753-75.666-115.106-126.743s-41.673-108.116-41.694-166.057v-212.8c0-16.973 6.741-33.254 18.743-45.257s28.284-18.743 45.257-18.743h192c16.973 0 33.254 6.741 45.257 18.743s18.743 28.284 18.743 45.257v192c0 16.973-6.741 33.254-18.743 45.257s-28.284 18.743-45.257 18.743z" />
</font>
</defs>
</svg>
